Welcome Guest ( Log In | Register )

> И неформату есть предел.

Рэп/хип-хоп/шансон/поп удаляются. Для них есть свои порталы.

> Vinterriket - Nachtfülle (2019), Ambient (D)
post Sep 13 2019, 21:06:09
Post #1

the faceless one
Group Icon
Group: S-moderation team
Posts: 9,229
Releases: 1885
On Forums: 11 years 1 month
Thanks: 111034 time(s)
Russian Federation


(IMG:http://metalarea.org/images/audiocovers/2019_Sep/acov_tid327379_thumb.jpg)

*Artist: Vinterriket
*Album: Nachtfülle
*Year: 2019
*Genre: Ambient
*Country: Germany (IMG:http://metalarea.org/forum/style_images/flags/Germany.png)
*Format: mp3@CBR320kbps
*Size: 138MB

Tracklist:
1. I 10:54
2. II 12:12
3. III 11:59
4. IV 11:22
5. V 13:53
******************************
Total playing time: 1:00:20

(IMG:http://metalarea.org/images/youtube.png)

Extended info
Aphelion Productions

Спектр - обычный для ambient-записей.


Technical info
(IMG:http://metalarea.org/images/spectrogram/2019_Sep/f949db87f4fd7db4b618e2caeaeda8ef.png)
Input File: 03 - Vinterriket - Nachtfülle III.mp3
Channels : 2
Sample Rate : 44100
Precision : 16-bit
Duration : 00:11:58.58 = 31689202 samples = 53893.2 CDDA sectors
File Size : 28.7M
Bit Rate : 320k
Sample Encoding: MPEG audio (layer I, II or III)
Comments :
Title=Nachtfülle III
Artist=Vinterriket
Album=Nachtfülle
Tracknumber=03
Year=2019
Genre=Ambient



Register


Go to the top of the page
  Insert nick Quick quote
+Quote Post
 
Start new topic
Replies (1 - 5)
post Sep 13 2019, 21:12:24
Post #2

Мегаманьяк
***********
Group: Металариец
Posts: 1,747
Releases: 0
From: Украина, Днепр
On Forums: 6 years 3 months
Thanks: 1353 time(s)
Ukraine


Офигенно! Тизер впечатлил - иногда - именно такое и ищу, без вокала и резких мелодических "всплесков" - под размышления - самое то. Тебя сначала окутывает, а потом ты просто закрываешь глаза и плывешь по волнам... (IMG:style_emoticons/default/20.gif)
Благодарю (IMG:style_emoticons/default/9.gif)


Thanks:
Go to the top of the page
  Insert nick Quick quote
+Quote Post
post Sep 14 2019, 19:57:00
Post #3
BAN
RO till
Sep 29 2019, 00:15:53



Thanks ofr bringing some interesting things to discover here.
Go to the top of the page
  Insert nick Quick quote
+Quote Post
post Sep 15 2019, 15:22:21
Post #4

poison creosote
*******
Group: Металариец
Posts: 748
Releases: 1
On Forums: 2 years 3 months
Thanks: 385 time(s)
Iceland


Старый добрый обволакивоющий эмбиент от Кристофа. Никогда такого не было и вот опять. (IMG:style_emoticons/default/20.gif)

А я уж думал, что он совсем забросил проект.


Thanks:
(1) Zahrim,
Go to the top of the page
  Insert nick Quick quote
+Quote Post
post Sep 15 2019, 16:32:17
Post #5

Русь Понад Усе!
**************
Group: Металариец
Posts: 4,209
Releases: 15
From: Украина
On Forums: 12 years 2 weeks
Thanks: 1650 time(s)
Ukraine


Самый любимый проект в дапнном жанре. Собираю на дисках всё что могу достать !!!


Thanks:
(1) Zahrim,
Go to the top of the page
  Insert nick Quick quote
+Quote Post
post Sep 15 2019, 20:34:52
Post #6

Мегаманьяк
***********
Group: Металариец
Posts: 1,539
Releases: 0
On Forums: 10 years 6 months
Thanks: 573 time(s)
Antarctica


Это музыка одиночества. Музыка пожелтевших листьев. Музыка ветренных холмов. Музыка волн, бьющихся о скалы. Музыка туманных полей и мокрых дорог. Музыка одиноко горящей свечи в окне. Музыка капельки, зависшей на ветке.
Прекрасный альбом.


Thanks:
Go to the top of the page
  Insert nick Quick quote
+Quote Post

Reply to this topicStart new topic
1 User(s) are reading this topic (1 Guests and 0 Anonymous Users)
0 Members:

 



- Lo-Fi Version Support form
Copyrights and abuse reports form
Time is now: 21st September 2019 - 06:01:38