Welcome Guest ( Log In | Register )

> И неформату есть предел.

Рэп/хип-хоп/шансон/поп удаляются. Для них есть свои порталы.

 
Reply to this topicStart new topic
> Various Artists - Sonic Seducer: Cold Hands Seduction 211 [compilation] (2019), Various Gothic (D2143)
post Sep 14 2019, 11:29:09
Post #1

Мегаманьяк
***********
Group: Металариец
Posts: 1,704
Releases: 463
On Forums: 11 years 5 months
Thanks: 6486 time(s)
Ireland


(IMG:https://metalarea.org/images/audiocovers/2019_Sep/acov_tid327412_thumb.jpg)

*Artist: Various Artists
*Album: Sonic Seducer: Cold Hands Seduction 211 [compilation]
*Year: 2019
*Genre: Various Gothic
*Country: Many (IMG:https://metalarea.org/forum/style_images/flags/Many.png)
*Format: mp3@CBR320kbps
*Size: 148MB

Tracklist:
01. Fairytale - Elfenwege
02. The 69 Eyes - 27 & Done (Exklusiv-Version)
03. New Model Army - End Of Days
04. La Scaltra - The Sentinel's Lot
05. Spitfish - Swallow The Dust
06. Stoppenberg - Get Ready
07. Alienare - Neon
08. Arise-X - Tanzschlacht
09. Les Berrtas - Meister, Der
10. Aesthetische - An End In Itself
11. Eggvn - Mantis
12. Unhuman - Seven Days
13. JanRevolution - Chasing Through The Night (H2G Remix)
14. The Snatcher - Material Mensch
15. Stromblefix - Gloomy Sunday Morning
16. Ashburn County - Threat: Sirens Call
******************************
Total playing time: 1:05:47

Technical info
(IMG:https://metalarea.org/images/spectrogram/2019_Sep/b3f4cc0cefc8c64535c11e17f942a7cc.png)
Input File: 08 Tanzschlacht.mp3
Channels : 2
Sample Rate : 44100
Precision : 16-bit
Duration : 00:04:27.46 = 11794942 samples = 20059.4 CDDA sectors
File Size : 10.8M
Bit Rate : 324k
Sample Encoding: MPEG audio (layer I, II or III)
Comments :
Title=Tanzschlacht
Artist=Arise-X
Album=Cold Hands Seduction Vol. 211
Tracknumber=08/16
Year=2019
Genre=Darkwave



Register


Thanks:
Go to the top of the page
  Insert nick Quick quote
+Quote Post

Reply to this topicStart new topic
1 User(s) are reading this topic (1 Guests and 0 Anonymous Users)
0 Members:

 



- Lo-Fi Version Support form
Copyrights and abuse reports form
Time is now: 20th October 2019 - 00:09:13