Welcome Guest ( Log In | Register )

> Sobek - Illusions Of Lunacy [ep] (2019), Brutal Death Metal
post Sep 14 2019, 19:00:53
Post #1

Правь статус, ####!111
**************
Group: Металариец
Posts: 19,828
Releases: 13456
From: Г.Харьков
On Forums: 7 years 7 months
Thanks: 232700 time(s)
Unknown


(IMG:https://metalarea.org/images/audiocovers/2019_Sep/acov_tid327424_thumb.jpg)

*Artist: Sobek
*Album: Illusions Of Lunacy [ep]
*Year: 2019
*Genre: Brutal Death Metal
*Country: United States (IMG:https://metalarea.org/forum/style_images/flags/United%20States.png)
*Format: mp3@CBR320kbps
*Size: 48MB

Tracklist:
1. The Appalling 05:26
2. Rotating Therapy 04:01
3. The Hospital of Seven Teeth 03:40
4. Session 9 03:31
5. Menstrual Derangements 03:35
******************************
Total playing time: 20:13



Extended info


Technical info
(IMG:https://metalarea.org/images/spectrogram/2019_Sep/111937b76515b051b57fe4a75dc35d66.png)
Input File: 02. Rotating Therapy.mp3
Channels : 2
Sample Rate : 44100
Precision : 16-bit
Duration : 00:04:01.28 = 10640580 samples = 18096.2 CDDA sectors
File Size : 9.81M
Bit Rate : 325k
Sample Encoding: MPEG audio (layer I, II or III)
Comments :
Title=Rotating Therapy
Artist=Sobek
Album=Illusions of Lunacy
Tracknumber=2
Year=2019
Genre=Brutal Death



Register


Go to the top of the page
  Insert nick Quick quote
+Quote Post
 
Start new topic
Replies (1 - 1)
post Sep 15 2019, 16:39:43
Post #2

Пусто
***********
Group: Металариец
Posts: 1,519
Releases: 27
From: Санкт-Петербург
On Forums: 12 years 11 months
Thanks: 1455 time(s)
Russian Federation


кто не в теме:
Death Metal supergroup formed by members (past and present) of Disgorge, Cephalotripsy, Gortuary, and Six Feet Under.


Thanks:
Go to the top of the page
  Insert nick Quick quote
+Quote Post

Reply to this topicStart new topic
1 User(s) are reading this topic (1 Guests and 0 Anonymous Users)
0 Members:

 



- Lo-Fi Version Support form
Copyrights and abuse reports form
Time is now: 11th December 2019 - 22:59:59