Welcome Guest ( Log In | Register )

> Психоз 4.48 - Сезоны Умирания (2019), Depressive Black Metal
post Sep 15 2019, 14:47:14
Post #1

Маньяк
**********
Group: Металариец
Posts: 1,030
Releases: 862
From: Новороссийск
On Forums: 8 years 7 months
Thanks: 15496 time(s)
Russian Federation


(IMG:https://metalarea.org/images/audiocovers/2019_Sep/acov_tid327455_thumb.jpg)

*Artist: Психоз 4.48
*Album: Сезоны Умирания
*Year: 2019
*Genre: Depressive Black Metal
*Country: Russian Federation (IMG:https://metalarea.org/forum/style_images/flags/Russian%20Federation.png)
*Format: mp3@CBR320kbps
*Size: 111MB

Tracklist:
01. Весна Умирания 09:22
02. Лето Умирания 12:53
03. Осень Умирания 12:45
04. Зима Умирания 13:31
******************************
Total playing time: 48:33



Technical info
(IMG:https://metalarea.org/images/spectrogram/2019_Sep/64fd69ac21ae761425ef214add61d36d.png)
Input File: 01. Весна Умирания.mp3
Channels : 2
Sample Rate : 44100
Precision : 16-bit
Duration : 00:09:22.74 = 24816746 samples = 42205.4 CDDA sectors
File Size : 22.5M
Bit Rate : 320k
Sample Encoding: MPEG audio (layer I, II or III)
Comments :
Title=Весна Умирания
Artist=Психоз 4.48
Album=Сезоны Умирания
Tracknumber=01
Year=2019
Genre=Black Metal



Register


Go to the top of the page
  Insert nick Quick quote
+Quote Post
 
Start new topic
Replies (1 - 7)
post Sep 15 2019, 16:44:45
Post #2

my church is black
********
Group: Металариец
Posts: 899
Releases: 3
On Forums: 2 years 6 months
Thanks: 547 time(s)
Cape Verde


Не знаю уж, на сколько процентов тут депроблэка, кроме него немалая доля дума присутствует. А вообще альбом приятный.


Thanks:
(1) thanataur,
Go to the top of the page
  Insert nick Quick quote
+Quote Post
post Sep 15 2019, 17:57:59
Post #3

Маньяк
**********
Group: Металариец
Posts: 1,318
Releases: 3
From: Новороссия
On Forums: 13 years 9 months
Thanks: 722 time(s)
Russian Federation


Типичный чуть замедленный атмосферный депрессивный блэк, вокал отторжения не вызывает, музыка приятственна. Дума не замечено, ИМХО.


Thanks:
(1) thanataur,
Go to the top of the page
  Insert nick Quick quote
+Quote Post
post Sep 15 2019, 18:25:40
Post #4

Пять Литров
*****
Group: Металариец
Posts: 475
Releases: 0
From: Катин город
On Forums: 11 years 2 weeks
Thanks: 326 time(s)
Russian Federation


О, Серёга разродился, что-то на форуме давно его не видать.


Thanks:
(1) thanataur,
Go to the top of the page
  Insert nick Quick quote
+Quote Post
post Sep 16 2019, 08:38:46
Post #5

Два Литра
**
Group: Завсегдатай
Posts: 172
Releases: 2
From: unholy mountains of kozloyobia
On Forums: 12 years 4 months
Thanks: 125 time(s)
Russian Federation


*Артист: Психоз 4.48 Умирания
*Альбом: Сезоны Умирания
*Год: 2019 Умирания
*Стиль: Depressive Black Metal Умирания
*Страна: Russian Federation Умирания
*Формат: mp3@CBR320kbps Умирания
*Размер: 111MB Умирания

Треклист Умирания:
01. Весна Умирания 09:22
02. Лето Умирания 12:53
03. Осень Умирания 12:45
04. Зима Умирания 13:31


Go to the top of the page
  Insert nick Quick quote
+Quote Post
post Sep 16 2019, 08:42:08
Post #6

my church is black
********
Group: Металариец
Posts: 899
Releases: 3
On Forums: 2 years 6 months
Thanks: 547 time(s)
Cape Verde


ЦИТАТА(Winterkalte @ 16th September 2019 - 12:38:46) *

лучше было бы "год умирания, стиль умирания, формат умирания, размер умирания" (IMG:style_emoticons/default/1488.gif)


Thanks:
Go to the top of the page
  Insert nick Quick quote
+Quote Post
post Sep 16 2019, 11:06:37
Post #7

sycamore trees
**************
Group: Металариец
Posts: 3,199
Releases: 0
On Forums: 3 years 10 months
Thanks: 1945 time(s)
Unknown


умирания круглый год!) (IMG:style_emoticons/default/5.gif)


Thanks:
(1) thanataur,
Go to the top of the page
  Insert nick Quick quote
+Quote Post
post Sep 17 2019, 06:49:18
Post #8

Group: Подсевший
Posts: 39
Releases: 2
From: Екб
On Forums: 11 years 10 months
Thanks: 50 time(s)
Russian Federation


ЦИТАТА(ripper33 @ Sep 15 2019, 20:25:40) *
О, Серёга разродился, что-то на форуме давно его не видать.

Дак, работа-семья-музло. Нет времени на форумы)
Go to the top of the page
  Insert nick Quick quote
+Quote Post

Reply to this topicStart new topic
2 User(s) are reading this topic (2 Guests and 0 Anonymous Users)
0 Members:

 



- Lo-Fi Version Support form
Copyrights and abuse reports form
Time is now: 13th December 2019 - 12:08:12