Welcome Guest ( Log In | Register )

> И неформату есть предел.

Рэп/хип-хоп/шансон/поп удаляются. Для них есть свои порталы.

 
Reply to this topicStart new topic
> Sigmund Snopek III - Trinity Seas Seize Sees (1974), Progressive Rock
post Sep 15 2019, 17:53:00
Post #1

Герберт Уэст
**************
Group: Металариец
Posts: 2,167
Releases: 68
From: Поморье
On Forums: 10 years 4 months
Thanks: 4552 time(s)
Russian Federation


(IMG:http://metalarea.org/images/audiocovers/2019_Sep/acov_tid327478_thumb.jpg)

*Artist: Sigmund Snopek III
*Album: Trinity Seas Seize Sees
*Year: 1974
*Genre: Progressive Rock
*Country: United States (IMG:http://metalarea.org/forum/style_images/flags/United%20States.png)
*Format: mp3@CBR320kbps
*Size: 259MB

Tracklist:
Acte 1 - Discovery
1. Narrative
2. Spirit Song (Death Command)
3. Narrative
4. Escape
5. Trinity Invitation
6. Return of the Spirit
7. Waukesha Windows
8. Rhyme Well
9. Interstellar Flight
10. Arrival Boogie
11. Arrival Jam
12. Bubble Freaks Reply
13. Controller's Reply
14. That is Why
15. Bubble Man Blues
16. Spatial Song
17. Star of Seas
18. Move Very Quickly
19. Flying Free
20. Leaving Seas
21. Infinite Song Word
22. 6 Years 1000 Eyes
23. Staring Song
24. Eyes
25. Colors and Confusion
26. Hypnotic Eye
27. Flight of the Frees

Acte 2 - Consequences
28. Ockar Thrinking
29. Blacmar Chrinking
30. Osmidachoo
31. The Dry People
32. Hypnotic Pulse
33. Evil Allies
34. First Attack of the Free Spirits
35. Cry of the Frees (after Losing)
36. War and Carnage
37. Counter Attack and Dimension Warp
38. Whistle Song

Acte 3 - Aftermath
39. Hall of Godcar
40. The Goddess
41. Square of Air (airaireerreere)
42. The 12 Keys
43. The Symphony of Man
44. Ghost
45. Spacemen
46. Forever
47. Return of the Spirit
48. The SandKing
******************************
Total playing time: 2:00:00

Preview 1

Extended info
Line-up / Musicians
- Peter Balistreri / drums (1-17, 48)
- Jerry Beebe / tenor sax (1-17, 48)
- David Bohn / recorder quartet (44-46)
- Dave Cook / trumpet (1-17, 48)
- Annie Denison / lead vocals (35)
- Kelly Fadeski / lead vocals (47), vocals (43)
- Scott Finch / lead guitar (26, 36), electric guitar (21, 25, 26, 36), acoustic guitar (22, 24, 25, 27, 35, 41)
- Leslie Fitzwater / lead vocal (43)
- James Gorton / lead vocals (all tracks except 2, 7, 19, 35, 41, 44, 45, 46, 47), vocals (1-17), acoustic guitar, electric guitar, autoharp, guitar & vocal arrangements
- Paul Gmeinder / cello (43)
- Jack Grassel / lead guitar (18, 19, 27-32, 34), electric guitar (18, 19), sitar (39)
- Rick Grusczynski / narration (1, 3)
- Mark Holm / trumpet (1-17, 48)
- Greg Janick / alto sax (1-17, 48), horn arrangements (1-17, 48)
- Ding Lorenz / drums & percussion (18, 19)
- Mike Lucas / drums & percussion (20-47)
- Irene Mitkus / goddess voice & translation (40)
- David Phillips / bass guitar (1-19, 48)
- Jeff Pietrangelo / trumpet with Harmon mute (28-30), trumpet (34)
- Bob Rebholz / electric flute & bass clarinet (18-19)
- Brian Ritchie / acoustic bass solo (42), Shakukachi flute (39)
- W Thatcher Schmid / whistler (38-39)
- Shaun Snopek / lead vocal (41)
- Sigmund Snopek / keyboards, flute, mellotron, synthesizers, lead vocals (2, 7, 21, 44, 45, 46), sequencing (20-47), vocals (1-17), vocal arrangements (1-17)
- Heidi & Lisa Spencer / lead vocals (chorus) (43)
- Susan Thomas / lead vocals (48)
- David Wadsworth / lead vocals (19)
- Byron Wiemann / vocals (1-17), lead electric and acoustic guitar (1-17, 37, 48), guitar & vocals arrangements (1-17)
- Warren Wiegratz / soprano sax (31), alto sax (35)
- Peter Wollenzien / trumpet (1-17, 48)
- Xeno / lead vocal (26)


Technical info
(IMG:http://metalarea.org/images/spectrogram/2019_Sep/ad9bfe8cf7cecddaedbc668a80433549.png)
Input File: 02 -spirit-song-death-command.mp3
Channels : 2
Sample Rate : 44100
Precision : 16-bit
Duration : 00:04:12.03 = 11114347 samples = 18902 CDDA sectors
File Size : 10.1M
Bit Rate : 320k
Sample Encoding: MPEG audio (layer I, II or III)
Comments :
Title=Spirit Song (Death Command)
Artist=Sigmund Snopek III
Album=Trinity Seas Seize Sees Disc 1(99)
Tracknumber=2
Genre=Jazz



Register


Thanks:
Go to the top of the page
  Insert nick Quick quote
+Quote Post

Reply to this topicStart new topic
1 User(s) are reading this topic (1 Guests and 0 Anonymous Users)
0 Members:

 



- Lo-Fi Version Support form
Copyrights and abuse reports form
Time is now: 19th October 2019 - 23:04:00