Welcome Guest ( Log In | Register )

 
Reply to this topicStart new topic
> Vanity Alive - Samsara [ep] (2019), Progressive Metal
post Sep 15 2019, 17:57:42
Post #1

Правь статус, ####!111
**************
Group: Металариец
Posts: 2,825
Releases: 2528
From: Одесса
On Forums: 12 years 4 days
Thanks: 24032 time(s)
Ukraine


(IMG:http://metalarea.org/images/audiocovers/2019_Sep/acov_tid327480_thumb.jpg)

*Artist: Vanity Alive
*Album: Samsara [ep]
*Year: 2019
*Genre: Progressive Metal
*Country: Hong Kong (IMG:http://metalarea.org/forum/style_images/flags/Hong%20Kong.png)
*Format: mp3@CBR320kbps
*Size: 31MB

Tracklist:
1.Indra 04:07
2.Asura 05:00
3.Deva 03:53
******************************
Total playing time: 13:00



Extended info
Line - up:
Ericson Bernardo - Everything

Guest/Session:
Brett Fairchild - Guitars (lead) (track 3)


Technical info
(IMG:http://metalarea.org/images/spectrogram/2019_Sep/219e2f6639f97d85056e241ed39c2dd7.png)
Input File: 03. Deva.mp3
Channels : 2
Sample Rate : 44100
Precision : 16-bit
Duration : 00:03:53.08 = 10278828 samples = 17481 CDDA sectors
File Size : 9.33M
Bit Rate : 320k
Sample Encoding: MPEG audio (layer I, II or III)
Comments :
Title=Deva
Artist=Vanity Alive
Album=Samsara (EP)
Tracknumber=3
Year=2019
Genre=Progressive Metal



Register


Go to the top of the page
  Insert nick Quick quote
+Quote Post

Reply to this topicStart new topic
1 User(s) are reading this topic (1 Guests and 0 Anonymous Users)
0 Members:

 



- Lo-Fi Version Support form
Copyrights and abuse reports form
Time is now: 7th June 2020 - 03:25:27