Welcome Guest ( Log In | Register )

> Правила / Rules

Тут только для чтения лежат низкобитрейтные (<192kbps) релизы, для которых есть аналоги в высокобитрейтных форумах.

Here goes (and stand in read only mode) low bitrate releases (<192kbps) which were already replaced by high bitrate releases in corresponding forums.

> Cult Of Luna - A Dawn To Fear (2019), Atmospheric Sludge/Progressive Metal/Post-Hardcore (D)
post Sep 15 2019, 18:54:20
Post #1

Каждое ваше "Спасибо" помогает мне понять, что я делаю новости не напрасно.
**************
Group: Металариец
Posts: 2,106
Releases: 1855
From: Одесса
On Forums: 11 years 6 months
Thanks: 16241 time(s)
Ukraine


(IMG:http://metalarea.org/images/audiocovers/2019_Sep/acov_tid327482_thumb.jpg)

*Artist: Cult Of Luna
*Album: A Dawn To Fear
*Year: 2019
*Genre: Atmospheric Sludge/Progressive Metal/Post-Hardcore
*Country: Sweden (IMG:http://metalarea.org/forum/style_images/flags/Sweden.png)
*Format: mp3@CBR128kbps (IMG:http://metalarea.org/images/bit_low.gif)
*Size: 75MB

Tracklist:
1.The Silent Man 10:36
2.Lay Your Head to Rest 06:23
3.A Dawn to Fear 08:53
4.Nightwalkers 10:48
5.Lights on the Hill 15:07
6.We Feel the End 07:06
7.Inland Rain 07:00
8.The Fall 13:13
******************************
Total playing time: 1:19:06



Extended info
Line - up:

Kristian Karlsson - Keyboards, Vocals (Eskju Divine, PG.Lost)
Magnus Lindberg - Guitars, Percussion
Johannes Persson - Guitars, Vocals (Riwen, Khoma)
Andreas Johansson - Bass (ex-The Vicious)
Thomas Hedlund - Drums (Deportees, The Perishers, ex-Khoma, ex-Plastic Pride)
Fredrik Kihlberg - Guitars, Vocals (Khoma)




(IMG:https://www.metal-archives.com/images/6/1/3/9/6139_photo.jpg?4143)


Technical info
(IMG:http://metalarea.org/images/spectrogram/2019_Sep/f0d3f12afce13392201e2a21df68e6fd.png)
Input File: 07 Inland Rain.mp3
Channels : 2
Sample Rate : 48000
Precision : 16-bit
Duration : 00:07:00.63 = 20190336 samples ~ 31547.4 CDDA sectors
File Size : 6.73M
Bit Rate : 128k
Sample Encoding: MPEG audio (layer I, II or III)
Comments :
Title=Inland Rain
Artist=Cult of Luna
Album=A Dawn to Fear
Tracknumber=7
Year=2019
Genre=Atmospheric Sludge/Progressive Metal/Post-Hardcore



Register


Go to the top of the page
  Insert nick Quick quote
+Quote Post
 
Start new topic
Replies (1 - 4)
post Sep 17 2019, 13:47:07
Post #2

Мегаманьяк
***********
Group: Металариец
Posts: 1,760
Releases: 0
From: Харьков
On Forums: 10 years 2 months
Thanks: 737 time(s)
Ukraine


Как-то неожиданно он вышел. Надеюсь, не хуже нескольких предыдущих.
Go to the top of the page
  Insert nick Quick quote
+Quote Post
post Sep 17 2019, 13:52:05
Post #3

Crush! Kill! Destroy!
**************
Group: Металариец
Posts: 5,165
Releases: 15
From: Kaliningrad
On Forums: 12 years 3 weeks
Thanks: 4731 time(s)
Russian Federation


QUOTE(Ghostb @ Sep 17 2019, 14:47:07) *
Как-то неожиданно он вышел. Надеюсь, не хуже нескольких предыдущих.


Судя по двум трекам, выложенным до выхода альбома, шведский неврозис тащит как лошадка Пржевальского! Медленно и со вкусом ))


Thanks:
(1) Ghostb,
Go to the top of the page
  Insert nick Quick quote
+Quote Post
post Sep 17 2019, 13:53:26
Post #4

Ледоруб
**************
Group: Металариец
Posts: 23,526
Releases: 0
From: Санкт-Петербург
On Forums: 10 years 2 months
Thanks: 7869 time(s)
Russian Federation


ЦИТАТА(Necrokilldozer @ 15th September 2019 - 20:54:20) *
Nightwalkers

Многообещающе.
Go to the top of the page
  Insert nick Quick quote
+Quote Post
post Sep 17 2019, 19:43:19
Post #5

Мегаманьяк
***********
Group: Металариец
Posts: 1,760
Releases: 0
From: Харьков
On Forums: 10 years 2 months
Thanks: 737 time(s)
Ukraine


Как обычно отличный альбом, пост-метал такого уровня сейчас единицы делают. Жду качества.

ЦИТАТА(6666666 @ Sep 17 2019, 15:53:26) *
Многообещающе

Не самый сильный трек.
Go to the top of the page
  Insert nick Quick quote
+Quote Post

Причина закрытия (Абигор 19-09-2019): Cult Of Luna - A Dawn To Fear (2019)
Closed TopicStart new topic
1 User(s) are reading this topic (1 Guests and 0 Anonymous Users)
0 Members:

 



- Lo-Fi Version Support form
Copyrights and abuse reports form
Time is now: 8th December 2019 - 13:50:38