Welcome Guest ( Log In | Register )

> Правила / Rules

Тут только для чтения лежат низкобитрейтные (<192kbps) релизы, для которых есть аналоги в высокобитрейтных форумах.

Here goes (and stand in read only mode) low bitrate releases (<192kbps) which were already replaced by high bitrate releases in corresponding forums.

Причина закрытия (Абигор 17-09-2019): Immer - Tears Of Blood (2019)
 
Closed TopicStart new topic
> Immer - Tears Of Blood (2019), Death Metal/Death'n'Roll
post Sep 16 2019, 07:56:32
Post #1

Правь статус, ####!111
**************
Group: Металариец
Posts: 19,790
Releases: 13420
From: Г.Харьков
On Forums: 7 years 6 months
Thanks: 232086 time(s)
Unknown


(IMG:https://metalarea.org/images/audiocovers/2019_Sep/acov_tid327496_thumb.jpg)

*Artist: Immer
*Album: Tears Of Blood
*Year: 2019
*Genre: Death Metal/Death'n'Roll
*Country: Czech Republic (IMG:https://metalarea.org/forum/style_images/flags/Czech%20Republic.png)
*Format: mp3@CBR320kbps
*Size: 105MB

Tracklist:
1. Come In 00:55 instrumental
2. Puppetters 03:16
3. Nothing Remains 03:54
4. Hatred 04:12
5. Tomahawk 04:06
6. Metal Rendezvous 04:50
7. Killer 04:29
8. Collector 04:37
9. Black Fire 03:16
10. Abolition of Paradise 04:21
11. Psycho Terror 04:18
12. Tears of Blood 03:55
13. Extincion 04:33
******************************
Total playing time: 50:42



Extended info
Šušo Guitars
Sikes Vocals, Bass
Petr "Špendlík" Czendlik Drums


Technical info
(IMG:https://metalarea.org/images/spectrogram/2019_Sep/d497f078c814023d69aa36371c3e9532.png)
Input File: 06 - Metal Rendezvous.mp3
Channels : 2
Sample Rate : 44100
Precision : 16-bit
Duration : 00:04:50.41 = 12806905 samples = 21780.5 CDDA sectors
File Size : 11.7M
Bit Rate : 321k
Sample Encoding: MPEG audio (layer I, II or III)
Comments :
Title=Metal Rendezvous
Artist=Immer
Album=Tears Of Blood
Tracknumber=6
Year=2019



Register


Go to the top of the page
  Insert nick Quick quote
+Quote Post

Причина закрытия (Абигор 17-09-2019): Immer - Tears Of Blood (2019)
Closed TopicStart new topic
2 User(s) are reading this topic (2 Guests and 0 Anonymous Users)
0 Members:

 



- Lo-Fi Version Support form
Copyrights and abuse reports form
Time is now: 7th December 2019 - 17:21:04