Welcome Guest ( Log In | Register )

> И неформату есть предел.

Рэп/хип-хоп/шансон/поп удаляются. Для них есть свои порталы.

> Welkins Boreal - Phantoms Of Yesteryear (2019), Gothic Rock
post Sep 18 2019, 12:02:52
Post #1

MDM-Thrash Metal
**************
Group: Металариец
Posts: 8,884
Releases: 677
From: Одесса
On Forums: 12 years 2 months
Thanks: 18791 time(s)
Ukraine


(IMG:http://metalarea.org/images/audiocovers/2019_Sep/acov_tid327568_thumb.jpg)

*Artist: Welkins Boreal
*Album: Phantoms Of Yesteryear
*Year: 2019
*Genre: Gothic Rock
*Country: Finland (IMG:http://metalarea.org/forum/style_images/flags/Finland.png)
*Format: mp3@CBR320kbps
*Size: 89MB

Tracklist:
01. Sleep Eternal 04:42
02. Thirteen Moons 04:01
03. Apparition 04:02
04. Sethian Seal 05:02
05. Discordia 04:52
06. Thelemite 04:11
07. Dance of Nightly Shadows 03:41
08. I Approach the End 03:42
09. Sorrow's Shroud 04:33
******************************
Total playing time: 38:46


(IMG:http://metalarea.org/images/youtube.png)


Technical info
(IMG:http://metalarea.org/images/spectrogram/2019_Sep/47815975e2d879bb9c1e579e92de7fa2.png)
Input File: 2 - Thirteen Moons.mp3
Channels : 2
Sample Rate : 44100
Precision : 16-bit
Duration : 00:04:01.44 = 10647372 samples = 18107.8 CDDA sectors
File Size : 9.71M
Bit Rate : 322k
Sample Encoding: MPEG audio (layer I, II or III)
Comments :
Title=Thirteen Moons
Artist=Welkins Boreal
Album=Phantoms Of Yesteryear
Tracknumber=2
Year=2019
Genre=Metal
Discnumber=1



Register


Go to the top of the page
  Insert nick Quick quote
+Quote Post
 
Start new topic
Replies (1 - 1)
post Sep 23 2019, 08:43:08
Post #2

Литр
*
Group: Подсевший
Posts: 76
Releases: 1
On Forums: 7 years 10 months
Thanks: 43 time(s)
Latvia


QUOTE
Welkins Boreal was founded in 2018 in Helsinki, Finland, as a reincarnation of Nattvindens Gråt, which released three albums 1995-2000.

The fundamental elements of the music are catchy rocking melodies, heavy guitar riffing, melancholic keyboards and baritone vocals. Fans of bands such as Sentenced, To/Die/For, Ghost and Charon should feel right at home with Welkins Boreal.
Go to the top of the page
  Insert nick Quick quote
+Quote Post

Reply to this topicStart new topic
1 User(s) are reading this topic (1 Guests and 0 Anonymous Users)
0 Members:

 



- Lo-Fi Version Support form
Copyrights and abuse reports form
Time is now: 19th October 2019 - 23:12:22