Welcome Guest ( Log In | Register )

> Правила / Rules

Тут только для чтения лежат низкобитрейтные (<192kbps) релизы, для которых есть аналоги в высокобитрейтных форумах.

Here goes (and stand in read only mode) low bitrate releases (<192kbps) which were already replaced by high bitrate releases in corresponding forums.

Причина закрытия (Borderline1991 20-09-2019):
 
Closed TopicStart new topic
> Warbell - Plague (2019), Melodic Death Metal
post Sep 18 2019, 22:47:29
Post #1

Четыре Литра
****
Group: Металариец
Posts: 356
Releases: 19
On Forums: 10 years 11 months
Thanks: 423 time(s)
United Kingdom


(IMG:http://metalarea.org/images/audiocovers/2019_Sep/acov_tid327587_thumb.jpg)

*Artist: Warbell
*Album: Plague
*Year: 2019
*Genre: Melodic Death Metal
*Country: Poland (IMG:http://metalarea.org/forum/style_images/flags/Poland.png)
*Format: mp3@CBR320kbps
*Size: 85MB

Tracklist:
1. Dualmind 02:55
2. Every Storm 02:56
3. Plague 03:14
4. The Fallen 05:49
5. Wolfpack 03:55
6. The Flames of Truth 03:00
7. Dethronement 02:57
8. Wheel of Life 03:31
9. Icaros 03:34
10. Marcenary's Fate 03:11
11. The Passenger 04:27
******************************
Total playing time: 39:29



Technical info
(IMG:http://metalarea.org/images/spectrogram/2019_Sep/bc8a81160d584e2bee39fbebd4d0629d.png)
Input File: 2 - Every Storm.mp3
Channels : 2
Sample Rate : 44100
Precision : 16-bit
Duration : 00:02:55.48 = 7738536 samples = 13160.8 CDDA sectors
File Size : 7.02M
Bit Rate : 320k
Sample Encoding: MPEG audio (layer I, II or III)
Comments :
Title=Every Storm
Artist=Warbell
Album=Plague
Tracknumber=2
Year=2019



Register


Go to the top of the page
  Insert nick Quick quote
+Quote Post

Причина закрытия (Borderline1991 20-09-2019):
Closed TopicStart new topic
1 User(s) are reading this topic (1 Guests and 0 Anonymous Users)
0 Members:

 



- Lo-Fi Version Support form
Copyrights and abuse reports form
Time is now: 24th February 2020 - 03:04:05