Welcome Guest ( Log In | Register )

> 

Здесь релизы с живыми прямыми ссылками на lossless

> The Agonist - Orphans (2019), Melodic Death Metal/Metalcore (D)
post Sep 19 2019, 11:10:27
Post #1

Serial Uploader
Group Icon
Group: V.I.P
Posts: 36,306
Releases: 34500
From: Lithuania
On Forums: 11 years 4 months
Thanks: 401578 time(s)
Lithuania


(IMG:https://metalarea.org/images/audiocovers/2019_Sep/acov_tid327605_thumb.jpg)

*Artist: The Agonist
*Album: Orphans
*Year: 2019
*Genre: Melodic Death Metal/Metalcore
*Country: Canada (IMG:https://metalarea.org/forum/style_images/flags/Canada.png)
*Format: mp3@CBR320kbps
*Size: 98MB

Tracklist:
01. In Vertigo 05:04
02. As One We Survive 03:40
03. The Gift of Silence 04:38
04. Blood as My Guide 04:27
05. Mr. Cold 04:40
06. Dust to Dust 03:17
07. A Devil Made Me Do It 03:38
08. The Killing I 04:17
09. Orphans 05:39
10. Burn It All Down 03:36
******************************
Total playing time: 42:56

(IMG:https://metalarea.org/images/myspace.png)


(IMG:https://metalarea.org/images/youtube.png)

Technical info
(IMG:https://metalarea.org/images/spectrogram/2019_Sep/7ba2a94ae72c0c2968c3999cbd27d92b.png)
Input File: 2 - As One We Survive.mp3
Channels : 2
Sample Rate : 44100
Precision : 16-bit
Duration : 00:03:40.64 = 9730312 samples = 16548.1 CDDA sectors
File Size : 8.86M
Bit Rate : 321k
Sample Encoding: MPEG audio (layer I, II or III)
Comments :
Title=As One We Survive
Artist=The Agonist
Album=Orphans
Tracknumber=2
Year=2019
Genre=Rock/Hard Rock/Metal
Discnumber=1



Register


Go to the top of the page
  Insert nick Quick quote
+Quote Post
 
Start new topic
Replies (1 - 8)
post Sep 20 2019, 03:43:16
Post #2

Правь статус, ####!111
**************
Group: Металариец
Posts: 19,079
Releases: 12876
From: Г.Харьков
On Forums: 7 years 5 months
Thanks: 221014 time(s)
Unknown


Cloud Mail 320
Register


Go to the top of the page
  Insert nick Quick quote
+Quote Post
post Sep 20 2019, 10:43:36
Post #3

hearer & reader
**************
Group: Металариец
Posts: 8,131
Releases: 105
From: Moscow
On Forums: 12 years 1 month
Thanks: 7599 time(s)
Russian Federation




Thanks:
(1) Andrew,
Go to the top of the page
  Insert nick Quick quote
+Quote Post
post Sep 21 2019, 06:44:19
Post #4

Тридцать лет на борту "Тяжёлого" крейсера
**************
Group: Металариец
Posts: 2,104
Releases: 0
From: Питер
On Forums: 12 years 4 months
Thanks: 528 time(s)
Russian Federation


Нормальная такая альта приправленная металкором и мдм
Вокал местами напрягает, но под настроение пойдёт
Go to the top of the page
  Insert nick Quick quote
+Quote Post
post Sep 21 2019, 11:50:04
Post #5

Три Литра
***
Group: Завсегдатай
Posts: 275
Releases: 0
From: Москва
On Forums: 11 years 1 month
Thanks: 42 time(s)
Russian Federation


мужика тебе надо, глядишь и не пришлось бы так орать, а нам слушать, хоть и кратковременно
Go to the top of the page
  Insert nick Quick quote
+Quote Post
post Oct 8 2019, 18:02:14
Post #6

Шесть Литров
******
Group: Металариец
Posts: 667
Releases: 10
On Forums: 10 years 9 months
Thanks: 162 time(s)
Germany


please, re-upload.
Go to the top of the page
  Insert nick Quick quote
+Quote Post
post Oct 8 2019, 18:19:26
Post #7


Group Icon
Group: S-moderation team
Posts: 12,082
Releases: 1439
From: Zagreb
On Forums: 8 years 7 months
Thanks: 52756 time(s)
Croatia


Register


Thanks:
(2) deathic, Femto,
Go to the top of the page
  Insert nick Quick quote
+Quote Post
post Oct 8 2019, 20:01:19
Post #8

MDM-Thrash Metal
**************
Group: Металариец
Posts: 8,889
Releases: 681
From: Одесса
On Forums: 12 years 2 months
Thanks: 18853 time(s)
Ukraine


ЦИТАТА(necroscum @ Sep 19 2019, 13:10:27) *
*Genre: Melodic Death Metal

(IMG:style_emoticons/default/hmm.gif) МДМ здесь явно не доминирует.
Go to the top of the page
  Insert nick Quick quote
+Quote Post
post Oct 8 2019, 21:22:42
Post #9
BAN
Banned till
Oct 30 2019, 13:48:48



ЦИТАТА(Borderline1991 @ Oct 8 2019, 20:19:26) *

Архив битый вхлам.
Go to the top of the page
  Insert nick Quick quote
+Quote Post

Reply to this topicStart new topic
1 User(s) are reading this topic (1 Guests and 0 Anonymous Users)
0 Members:

 



- Lo-Fi Version Support form
Copyrights and abuse reports form
Time is now: 21st October 2019 - 01:56:21