Welcome Guest ( Log In | Register )

> 

Здесь релизы с живыми прямыми ссылками на lossless

> Murder Made God - Endless Return (2019), Technical/Brutal Death Metal
post Sep 19 2019, 11:59:25
Post #1

Serial Uploader
Group Icon
Group: V.I.P
Posts: 36,306
Releases: 34500
From: Lithuania
On Forums: 11 years 4 months
Thanks: 401568 time(s)
Lithuania


(IMG:https://metalarea.org/images/audiocovers/2019_Sep/acov_tid327613_thumb.jpg)

*Artist: Murder Made God
*Album: Endless Return
*Year: 2019
*Genre: Technical/Brutal Death Metal
*Country: Greece (IMG:https://metalarea.org/forum/style_images/flags/Greece.png)
*Format: mp3@CBR320kbps
*Size: 91MB

Tracklist:
01. Alive 04:32
02. World Defect 04:26
03. Darkness Thy Gift 03:38
04. Gates of No Return 03:48
05. Trial and Enemies 04:08
06. Cognitive Dissonance 05:31
07. A Final Conflict 03:15
08. The Sword 03:26
09. Love of Fate 02:50
10. Victa Morte 04:05
******************************
Total playing time: 39:39

(IMG:https://metalarea.org/images/myspace.png)


(IMG:https://metalarea.org/images/youtube.png)

Technical info
(IMG:https://metalarea.org/images/spectrogram/2019_Sep/be1811896de4e78f418f2a7fa883dd56.png)
Input File: 02 World Defect.mp3
Channels : 2
Sample Rate : 44100
Precision : 16-bit
Duration : 00:04:26.31 = 11744095 samples = 19973 CDDA sectors
File Size : 10.7M
Bit Rate : 320k
Sample Encoding: MPEG audio (layer I, II or III)
Comments :
Title=World Defect
Artist=Murder Made God
Album=Endless Return
Tracknumber=02/10
Year=2019
Discnumber=1/1



Register


Go to the top of the page
  Insert nick Quick quote
+Quote Post
 
Start new topic
Replies (1 - 3)
post Sep 20 2019, 02:15:57
Post #2

Group: Дух
Posts: 9
Releases: 0
On Forums: 1 year 6 months
Thanks: 11 time(s)
Unknown




Thanks:
(1) artscald,
Go to the top of the page
  Insert nick Quick quote
+Quote Post
post Sep 20 2019, 02:40:36
Post #3

Правь статус, ####!111
**************
Group: Металариец
Posts: 19,079
Releases: 12876
From: Г.Харьков
On Forums: 7 years 5 months
Thanks: 221008 time(s)
Unknown


Cloud Mail 320
Register


Go to the top of the page
  Insert nick Quick quote
+Quote Post
post Sep 21 2019, 09:06:52
Post #4

Четыре Литра
****
Group: Металариец
Posts: 355
Releases: 0
From: APATIN, SERBIA, АПАТИН, СЕРБИЯ
On Forums: 11 years 11 months
Thanks: 488 time(s)



Flac

Register


Thanks:
(1) Olethros,
Go to the top of the page
  Insert nick Quick quote
+Quote Post

Reply to this topicStart new topic
1 User(s) are reading this topic (1 Guests and 0 Anonymous Users)
0 Members:

 



- Lo-Fi Version Support form
Copyrights and abuse reports form
Time is now: 21st October 2019 - 00:37:54