Welcome Guest ( Log In | Register )

> Takafumi Matsubara - Strange, Beautiful And Fast (2019), Grindcore
post Sep 19 2019, 14:14:19
Post #1

Serial Uploader
Group Icon
Group: V.I.P
Posts: 37,124
Releases: 35308
From: Lithuania
On Forums: 11 years 11 months
Thanks: 419439 time(s)
Lithuania


(IMG:https://metalarea.org/images/audiocovers/2019_Sep/acov_tid327632_thumb.jpg)

*Artist: Takafumi Matsubara
*Album: Strange, Beautiful And Fast
*Year: 2019
*Genre: Grindcore
*Country: Japan (IMG:https://metalarea.org/forum/style_images/flags/Japan.png)
*Format: mp3@CBR320kbps
*Size: 78MB

Tracklist:
01. Stuttered Rope
02. Ice Pick
03. Metina Lako Achyar
04. Dignity
05. Halo of Lies
06. Void Walker
07. Path to Isolation
08. Song Eight
09. Pull Out My Eyes
10. Controlled Matrix of Thought
11. Disparity
12. Fate of Fear
13. S.A.M (feat. Antigama)
14. Filius Lapis
15. Crawlspace
16. Abstract Maelstroms
17. Selfish Vow
******************************
Total playing time: 33:57


(IMG:https://metalarea.org/images/youtube.png)

Technical info
(IMG:https://metalarea.org/images/spectrogram/2019_Sep/25b3e64fdb686bf8c631d19217914b05.png)
Input File: 02. ICE Pick.mp3
Channels : 2
Sample Rate : 44100
Precision : 16-bit
Duration : 00:01:28.30 = 3894074 samples = 6622.57 CDDA sectors
File Size : 3.64M
Bit Rate : 330k
Sample Encoding: MPEG audio (layer I, II or III)
Comments :
Title=ICE Pick
Artist=Takafumi Matsubara
Album=Strange, Beautiful and Fast
Tracknumber=2/17
Year=2019
Genre=9
Discnumber=1/1



Register


Go to the top of the page
  Insert nick Quick quote
+Quote Post
 
Start new topic
Replies (1 - 4)
post Sep 19 2019, 23:09:56
Post #2

Два Литра
**
Group: Завсегдатай
Posts: 194
Releases: 5
On Forums: 8 years 3 months
Thanks: 293 time(s)
Ukraine


Go to the top of the page
  Insert nick Quick quote
+Quote Post
post Sep 25 2019, 04:51:02
Post #3

Четыре Литра
****
Group: Металариец
Posts: 348
Releases: 10
On Forums: 13 years 3 months
Thanks: 486 time(s)
French Southern Territories


FLAC anyone please?
Go to the top of the page
  Insert nick Quick quote
+Quote Post
post Oct 1 2019, 17:42:25
Post #4

Литр
*
Group: Подсевший
Posts: 80
Releases: 5
On Forums: 1 year 3 months
Thanks: 207 time(s)
Ukraine


Это просто лучший гриндовый альбом, что я слушал за долгое время.
Go to the top of the page
  Insert nick Quick quote
+Quote Post
post Mar 11 2020, 14:44:22
Post #5
BAN
Banned till
Jun 3 2020, 18:40:35



Register


Thanks:
Go to the top of the page
  Insert nick Quick quote
+Quote Post

Reply to this topicStart new topic
1 User(s) are reading this topic (1 Guests and 0 Anonymous Users)
0 Members:

 



- Lo-Fi Version Support form
Copyrights and abuse reports form
Time is now: 3rd June 2020 - 04:14:53