Welcome Guest ( Log In | Register )

> И неформату есть предел.

Рэп/хип-хоп/шансон/поп удаляются. Для них есть свои порталы.

 
Reply to this topicStart new topic
> Hëxeris - Färd Genom Andens Mysticism​.​.​. [demo] (2018), Martial/Dark Ambient
post Sep 20 2019, 10:18:05
Post #1

Мегаманьяк
***********
Group: Металариец
Posts: 1,810
Releases: 1430
From: Prešov
On Forums: 5 years 6 months
Thanks: 34726 time(s)
Slovakia


(IMG:http://metalarea.org/images/audiocovers/2019_Sep/acov_tid327671_thumb.jpg)

*Artist: Hëxeris
*Album: Färd Genom Andens Mysticism​.​.​. [demo]
*Year: 2018
*Genre: Martial/Dark Ambient
*Country: Sweden (IMG:http://metalarea.org/forum/style_images/flags/Sweden.png)
*Format: mp3@CBR320kbps
*Size: 80MB

Tracklist:
A1. I
A2. II
A3. III
B1. IV
B2. V
******************************
Total playing time: 30:23



Extended info
Amor Fati ‎– AFP072


Technical info
(IMG:http://metalarea.org/images/spectrogram/2019_Sep/3d5a9ab9b05c5d26d65678a4f0bbf42e.png)
Input File: 02. II.mp3
Channels : 2
Sample Rate : 44100
Precision : 16-bit
Duration : 00:13:18.89 = 35231181 samples = 59917 CDDA sectors
File Size : 32.0M
Bit Rate : 321k
Sample Encoding: MPEG audio (layer I, II or III)
Comments :
Title=II
Artist=Hëxeris
Album=Färd Genom Andens Mysticism
Tracknumber=02/05
Year=2018
Genre=Dark Ambient



Register


Go to the top of the page
  Insert nick Quick quote
+Quote Post

Reply to this topicStart new topic
1 User(s) are reading this topic (1 Guests and 0 Anonymous Users)
0 Members:

 



- Lo-Fi Version Support form
Copyrights and abuse reports form
Time is now: 21st October 2019 - 00:37:29