Welcome Guest ( Log In | Register )

> И неформату есть предел.

Рэп/хип-хоп/шансон/поп удаляются. Для них есть свои порталы.

 
Reply to this topicStart new topic
> Iniquitatem - Den Sista Vilostunden (2016), Martial/Neoclassical
post Sep 20 2019, 10:25:37
Post #1

Мегаманьяк
***********
Group: Металариец
Posts: 1,810
Releases: 1430
From: Prešov
On Forums: 5 years 6 months
Thanks: 34726 time(s)
Slovakia


(IMG:http://metalarea.org/images/audiocovers/2019_Sep/acov_tid327673_thumb.jpg)

*Artist: Iniquitatem
*Album: Through the Times of Medieval War
*Year: 2016
*Genre: Martial/Neoclassical
*Country: Sweden (IMG:http://metalarea.org/forum/style_images/flags/Sweden.png)
*Format: mp3@CBR320kbps
*Size: 119MB

Tracklist:
1. I 04:45
2. II 04:53
3. III 05:14
4. IV 06:01
5. V 02:47
6. VI 03:43
7. VII 04:32
8. VIII 07:05
9. IX 03:06
10. X 02:25
11. XI (Bonus) 05:14
******************************
Total playing time: 49:45



Extended info
Mysticism Productions / Purity Through Fire


Technical info
(IMG:http://metalarea.org/images/spectrogram/2019_Sep/84099f6d2b2a9d1140ab03b1ae14ee5c.png)
Input File: 08. VIII.mp3
Channels : 2
Sample Rate : 44100
Precision : 16-bit
Duration : 00:07:05.92 = 18783072 samples = 31944 CDDA sectors
File Size : 17.1M
Bit Rate : 321k
Sample Encoding: MPEG audio (layer I, II or III)
Comments :
Title=VIII
Artist=Iniquitatem
Album=Through The Times Of Medieval War
Tracknumber=08/11
Year=2018
Genre=Dark Ambient



Register


Go to the top of the page
  Insert nick Quick quote
+Quote Post

Reply to this topicStart new topic
1 User(s) are reading this topic (1 Guests and 0 Anonymous Users)
0 Members:

 



- Lo-Fi Version Support form
Copyrights and abuse reports form
Time is now: 21st October 2019 - 00:38:31