Welcome Guest ( Log In | Register )

> 

Здесь релизы с живыми прямыми ссылками на lossless

> Posthumous Regurgitation - Glorification Of Medical Malpractice [ep] (2019), Goregrind
post Sep 20 2019, 15:42:27
Post #1

Serial Uploader
Group Icon
Group: V.I.P
Posts: 36,306
Releases: 34494
From: Lithuania
On Forums: 11 years 4 months
Thanks: 401459 time(s)
Lithuania


(IMG:https://metalarea.org/images/audiocovers/2019_Sep/acov_tid327699_thumb.jpg)

*Artist: Posthumous Regurgitation
*Album: Glorification Of Medical Malpractice [ep]
*Year: 2019
*Genre: Goregrind
*Country: United States (IMG:https://metalarea.org/forum/style_images/flags/United%20States.png)
*Format: mp3@CBR320kbps
*Size: 40MB

Tracklist:
01. Prepped For Dissection 01:46
02. Culto Al Dolor 01:29
03. Seepage Of Malodorous Effluvium 02:50
04. Mass Of Unwilling Organ Donors 02:41
05. The Miseducation Of Mary Jane Kelly 01:36
06. Glorification Of Medical Malpractice 03:12
07. Dozens Of Dismembered Torsos (Butcher ABC Cover) 01:28
******************************
Total playing time: 15:02




Technical info
(IMG:https://metalarea.org/images/spectrogram/2019_Sep/2bcd654eb7ff3b90f4bfe571f3e0071b.png)
Input File: Posthumous Regurgitation - Glorification of Medical Malpractice - 02. Culto Al Dolor.mp3
Channels : 2
Sample Rate : 44100
Precision : 16-bit
Duration : 00:01:29.61 = 3951713 samples = 6720.6 CDDA sectors
File Size : 3.95M
Bit Rate : 353k
Sample Encoding: MPEG audio (layer I, II or III)
Comments :
Title=Culto Al Dolor
Artist=Posthumous Regurgitation
Album=Glorification of Medical Malpractice
Tracknumber=02
Year=2019
Genre=Metal



Register


Go to the top of the page
  Insert nick Quick quote
+Quote Post
 
Start new topic
Replies (1 - 1)
post Sep 21 2019, 07:23:08
Post #2

Четыре Литра
****
Group: Металариец
Posts: 348
Releases: 0
From: APATIN, SERBIA, АПАТИН, СЕРБИЯ
On Forums: 11 years 11 months
Thanks: 482 time(s)



Flac

Register
Go to the top of the page
  Insert nick Quick quote
+Quote Post

Reply to this topicStart new topic
1 User(s) are reading this topic (1 Guests and 0 Anonymous Users)
0 Members:

 



- Lo-Fi Version Support form
Copyrights and abuse reports form
Time is now: 19th October 2019 - 23:49:00