Welcome Guest ( Log In | Register )

> И неформату есть предел.

Рэп/хип-хоп/шансон/поп удаляются. Для них есть свои порталы.

 
Reply to this topicStart new topic
> Iniquitatem - Den Sista Vilostunden (2017), Martial/Neoclassical
post Sep 20 2019, 20:24:25
Post #1

Мегаманьяк
***********
Group: Металариец
Posts: 1,810
Releases: 1430
From: Prešov
On Forums: 5 years 6 months
Thanks: 34726 time(s)
Slovakia


(IMG:http://metalarea.org/images/audiocovers/2019_Sep/acov_tid327728_thumb.jpg)

*Artist: Iniquitatem
*Album: Den Sista Vilostunden
*Year: 2017
*Genre: Martial/Neoclassical
*Country: Sweden (IMG:http://metalarea.org/forum/style_images/flags/Sweden.png)
*Format: mp3@CBR320kbps
*Size: 105MB

Tracklist:
1. Gravkammaren Öppnas 01:36
2. Belyst av Månens Sken 05:39
3. Broder Fäller Broder 06:18
4. En Vacker Djup Grav 07:27
5. Tider som Gått 05:01
6. Innan Lifvets Slutskede 06:44
7. Den Sista Konungen 07:06
8. Den Sista Vilostunden 02:23
******************************
Total playing time: 42:14



Extended info
Mysticism Productions / Purity Through Fire


Technical info
(IMG:http://metalarea.org/images/spectrogram/2019_Sep/e7851a95e5c7effa610370e8a4729850.png)
Input File: 02. Belyst av Månens Sken.mp3
Channels : 2
Sample Rate : 44100
Precision : 16-bit
Duration : 00:05:39.85 = 14987165 samples = 25488.4 CDDA sectors
File Size : 13.7M
Bit Rate : 322k
Sample Encoding: MPEG audio (layer I, II or III)
Comments :
Title=Belyst av Månens Sken
Artist=Iniquitatem
Album=Den Sista Vilostunden
Tracknumber=02/08
Year=2016
Genre=Martial / Neoclassical



Register


Go to the top of the page
  Insert nick Quick quote
+Quote Post

Reply to this topicStart new topic
1 User(s) are reading this topic (1 Guests and 0 Anonymous Users)
0 Members:

 



- Lo-Fi Version Support form
Copyrights and abuse reports form
Time is now: 21st October 2019 - 00:42:07