Welcome Guest ( Log In | Register )

> Releases Upload / Добавление релизов

Добавить релиз тут / Click here to add release
Рекомендованные обменники / Recommended file shares

 
Reply to this topicStart new topic
> Nordvargr - Tantum Melior [compilation] (2019), Dark Ambient/Black Industrial/Drone/EBM/Experimental/Black Metal (D26)
post Sep 21 2019, 21:48:14
Post #1

𝕻𝕬𝕹𝕬𝕮𝕰𝕬
*******
Group: Металариец
Posts: 712
Releases: 403
On Forums: 7 years 5 months
Thanks: 6195 time(s)
Unknown


(IMG:http://metalarea.org/images/audiocovers/2019_Sep/acov_tid327787_thumb.jpg)

*Artist: Nordvargr
*Album: Tantum Melior [compilation]
*Year: 2019
*Genre: Dark Ambient/Black Industrial/Drone/EBM/Experimental/Black Metal
*Country: Sweden (IMG:http://metalarea.org/forum/style_images/flags/Sweden.png)
*Format: mp3@CBR320kbps
*Size: 82MB

Tracklist:
1. Into The Cycle Of All And Nothing (MZ. 412 - Rework) 02:46
2. Sweet Death Triumphant (Ordo Rosarius Equilibrio - Rework) 03:23
3. At The Crossroads Of Immortality (Vassafor - Rework) 06:26
4. Invocation For A Malignant Spirit (Visions - Rework) 04:41
5. Sweet Death Triumphant (Kristoffer Oustad - Rework) 04:28
6. Salve Teragmon (Spetsnaz - Rework) 03:37
7. Manifestation (Michael Idehall - Rework) 04:24
8. Sweet Death Triumphant (Thorofon - Rework) 03:56
9. Consolamentum (The Benjolin Codex - Rework) 03:56
******************************
Total playing time: 37:37



Extended info
A Compilation of tracks taken from the 2018 "Metempsychosis" album
and reworked by MZ. 412, Ordo Rosarius Equilibrio, Vassafor, Visions, Kristoffer Oustad, Spetsnaz, Michael Idehall, Thorofon and The Benjolin Codex.

Edition of 500 copies in 4 panel Digisleeve.
Released by Cyclic Law.


Technical info
(IMG:http://metalarea.org/images/spectrogram/2019_Sep/bf65af3b36bc4b5a7f76e90500409994.png)
Input File: 01 - Into The Cycle Of All And Nothing (MZ.412 - Rework).mp3
Channels : 2
Sample Rate : 44100
Precision : 16-bit
Duration : 00:02:46.75 = 7353719 samples = 12506.3 CDDA sectors
File Size : 6.67M
Bit Rate : 320k
Sample Encoding: MPEG audio (layer I, II or III)
Comments :
Title=Into The Cycle Of All And Nothing (MZ.412 - Rework)
Artist=Nordvargr
Album=Tantum Melior
Tracknumber=01/09
Year=2019
Genre=Dark Ambient/Black Industrial/Drone/EBM/Experimental/Black Metal



Register


Go to the top of the page
  Insert nick Quick quote
+Quote Post

Reply to this topicStart new topic
2 User(s) are reading this topic (2 Guests and 0 Anonymous Users)
0 Members:

 



- Lo-Fi Version Support form
Copyrights and abuse reports form
Time is now: 20th November 2019 - 23:15:53