Welcome Guest ( Log In | Register )

> Releases Upload / Добавление релизов

Добавить релиз тут / Click here to add release
Рекомендованные обменники / Recommended file shares

 
Reply to this topicStart new topic
> Heretic Legion & Heretics & Wayward Dawn & Deadflesh - Carriers Of The Disease [split] (2019), Death Metal
post Sep 22 2019, 12:42:07
Post #1

𝕻𝕬𝕹𝕬𝕮𝕰𝕬
*******
Group: Металариец
Posts: 709
Releases: 401
On Forums: 7 years 5 months
Thanks: 6109 time(s)
Unknown


(IMG:http://metalarea.org/images/audiocovers/2019_Sep/acov_tid327803_thumb.jpg)

*Artist: Heretic Legion & Heretics & Wayward Dawn & Deadflesh
*Album: Carriers Of The Disease [split]
*Year: 2019
*Genre: Death Metal | Melodic Death/Thrash Metal | Death Metal | Death Metal
*Country: Sweden (IMG:http://metalarea.org/forum/style_images/flags/Sweden.png) | Germany (IMG:http://metalarea.org/forum/style_images/flags/Germany.png) | Denmark (IMG:http://metalarea.org/forum/style_images/flags/Denmark.png) | Denmark (IMG:http://metalarea.org/forum/style_images/flags/Denmark.png)
*Format: mp3@CBR320kbps
*Size: 141MB

Tracklist:
Heretic Legion:
1. The Purge 05:27
2. Our Hell 05:20
3. Resurrection 06:04
Heretics:
4. Talent For Violence 05:34
5. With Thoughts As Weapons 05:44
6. Ordered Chaos 04:08
Wayward Dawn:
7. In Darkness We Dwell 03:40
8. Ape Of State 04:18
9. March Of Mannequins 06:45
Deadflesh:
10. Iron Mountain 05:02
11. Age Of Treason 04:20
12. Sherman's March 02:18
******************************
Total playing time: 58:40



Technical info
(IMG:http://metalarea.org/images/spectrogram/2019_Sep/9381a90c31d9cf8f3eb460cfd445fa60.png)
Input File: 12 - Deadflesh-Sherman's March.mp3
Channels : 2
Sample Rate : 44100
Precision : 16-bit
Duration : 00:02:18.77 = 6119889 samples = 10408 CDDA sectors
File Size : 6.01M
Bit Rate : 346k
Sample Encoding: MPEG audio (layer I, II or III)
Comments :
Title=Sherman's March
Artist=Deadflesh
Album=Carriers Of The Disease - 4-Way Split
Tracknumber=12
Year=2019
Genre=22



Register


Go to the top of the page
  Insert nick Quick quote
+Quote Post

Reply to this topicStart new topic
2 User(s) are reading this topic (2 Guests and 0 Anonymous Users)
0 Members:

 



- Lo-Fi Version Support form
Copyrights and abuse reports form
Time is now: 15th November 2019 - 10:35:01