Welcome Guest ( Log In | Register )

> И неформату есть предел.

Рэп/хип-хоп/шансон/поп удаляются. Для них есть свои порталы.

> Hektik - Honest Disdain Is A Face Of God (2019), Metalcore/Chaotic Hardcore
post Sep 22 2019, 13:29:25
Post #1

Маньяк
**********
Group: Металариец
Posts: 1,320
Releases: 119
On Forums: 10 years 2 months
Thanks: 997 time(s)
Kazakhstan


(IMG:https://metalarea.org/images/audiocovers/2019_Sep/acov_tid327809_thumb.jpg)

*Artist: Hektik
*Album: Honest Disdain Is A Face Of God
*Year: 2019
*Genre: Metalcore/Chaotic Hardcore
*Country: Germany (IMG:https://metalarea.org/forum/style_images/flags/Germany.png)
*Format: mp3@CBR192kbps
*Size: 26MB

Tracklist:
1.Naked Above 03:23
2.Vial 02:32
3.Ceiling 00:58
4.Imposter Syndrome 01:20
5.Sewage 02:31
6.Slurred Voice 02:15
7.Grimaces 01:59
8.Cervical Dislocation 03:28
******************************
Total playing time: 18:26



Extended info
Не совсем хаотик, но ритм-секция разнообразненькая. Для любителей Nostromo. Но тут без лирических отступлений, только мочилово.


Technical info
(IMG:https://metalarea.org/images/spectrogram/2019_Sep/1e835f799c538a17720768288d5c9c3a.png)
Input File: 4 - Imposter Syndrome.mp3
Channels : 2
Sample Rate : 44100
Precision : 16-bit
Duration : 00:01:20.22 = 3537878 samples = 6016.8 CDDA sectors
File Size : 1.93M
Bit Rate : 192k
Sample Encoding: MPEG audio (layer I, II or III)



Register


Thanks:
Go to the top of the page
  Insert nick Quick quote
+Quote Post
 
Start new topic
Replies (1 - 2)
post Sep 24 2019, 19:40:05
Post #2

Quaerite Lux in Tenebris
**************
Group: Металариец
Posts: 2,112
Releases: 38
From: Micsődőllő
On Forums: 9 years 3 months
Thanks: 3800 time(s)
Unknown


Роскошно! Спасибо!

(IMG:style_emoticons/default/metaler.gif)
Есть что порекомендовать похожего? Только без соплей и чистоголосого блякотания, пожалуйста...
Go to the top of the page
  Insert nick Quick quote
+Quote Post
post Sep 25 2019, 10:03:36
Post #3

Маньяк
**********
Group: Металариец
Posts: 1,320
Releases: 119
On Forums: 10 years 2 months
Thanks: 997 time(s)
Kazakhstan


ЦИТАТА(SyncestrA @ Sep 25 2019, 00:40:05) *
Только без соплей и чистоголосого блякотания, пожалуйста...

да вроде такого не держу
SyncestrA, я думал, что ты из дальнего зарубежья, а ты по-русски заговорил)
Из подобного ломаного жесткого мк попробуй Racetraitor ранний (поздний также крут, но более "упорядоченный"), упомянутых Nostromo, Dragbody, Frenesy, в меньшей степени Left With Nothing поздний, Recycled earth, Still Breathing, Single file suicide навскидочку. Многое из них заливал когда-то.
Go to the top of the page
  Insert nick Quick quote
+Quote Post

Reply to this topicStart new topic
1 User(s) are reading this topic (1 Guests and 0 Anonymous Users)
0 Members:

 



- Lo-Fi Version Support form
Copyrights and abuse reports form
Time is now: 21st October 2019 - 01:28:39