Welcome Guest ( Log In | Register )

> Survive - Immortal Warriors (2019), Melodic Death/Thrash Metal
post Sep 23 2019, 12:32:50
Post #1

Правь статус, ####!111
**************
Group: Металариец
Posts: 21,333
Releases: 14587
From: Г.Харьков
On Forums: 7 years 11 months
Thanks: 260896 time(s)
Unknown


(IMG:http://metalarea.org/images/audiocovers/2019_Sep/acov_tid327846_thumb.jpg)

*Artist: Survive
*Album: Immortal Warriors
*Year: 2019
*Genre: Melodic Death/Thrash Metal
*Country: Japan (IMG:http://metalarea.org/forum/style_images/flags/Japan.png)
*Format: mp3@CBR320kbps
*Size: 117MB

Tracklist:
1. Degenerate 05:12
2. Wrath 03:26
3. Immortal Warriors 05:56
4. Tears of the victims 02:46
5. Killing Field 03:18
6. Obey Your Own Army Corps 03:03
7. Programmed Slaves 03:14
8. Wither My Dying Blood 05:44
9. Control The Darkness 04:58
10. Blood And Sacrifice 04:42
11. Master of Puppets (Metallica cover) 08:36
******************************
Total playing time: 50:55



Extended info
Masuru "Nemo" Nemoto Vocals, Guitars (1998-present)
See also: ex-Death File
Sinjilow Bass (2003-present)
Shintarou Drums (2011-present)
See also: Crossout
Gaku Guitars (2011-present)
See also: Crossout, ex-Spirytus (live)



Technical info
(IMG:http://metalarea.org/images/spectrogram/2019_Sep/4d06e608945f40992b85a3644927bd87.png)
Input File: 5 - Killing Field.mp3
Channels : 2
Sample Rate : 44100
Precision : 16-bit
Duration : 00:03:18.72 = 8763728 samples = 14904.3 CDDA sectors
File Size : 8.05M
Bit Rate : 324k
Sample Encoding: MPEG audio (layer I, II or III)
Comments :
Title=Killing Field
Artist=SURVIVE
Album=Immortal Warriors
Tracknumber=5
Year=2019
Genre=Metal
Discnumber=1



Register


Go to the top of the page
  Insert nick Quick quote
+Quote Post
 
Start new topic
Replies (1 - 7)
post Sep 23 2019, 13:35:02
Post #2

Правь статус, ####!111
**************
Group: Металариец
Posts: 21,333
Releases: 14587
From: Г.Харьков
On Forums: 7 years 11 months
Thanks: 260896 time(s)
Unknown


Cloud Mail 320
Register


Thanks:
Go to the top of the page
  Insert nick Quick quote
+Quote Post
post Sep 23 2019, 17:53:16
Post #3

Восемь Литров
********
Group: Металариец
Posts: 830
Releases: 0
From: Черкассы
On Forums: 8 years 4 months
Thanks: 118 time(s)
Ukraine


https://sliptrickrecords.com/release/surviv...ortal-warriors/
https://www.metal-archives.com/albums/Survi...Warriors/725082
Кому верить?
Go to the top of the page
  Insert nick Quick quote
+Quote Post
post Sep 23 2019, 18:06:35
Post #4

hearer & reader
**************
Group: Металариец
Posts: 8,532
Releases: 133
From: Moscow
On Forums: 12 years 7 months
Thanks: 8414 time(s)
Russian Federation


ЦИТАТА(krotovich @ Sep 23 2019, 19:53:16) *



Go to the top of the page
  Insert nick Quick quote
+Quote Post
post Sep 23 2019, 19:42:50
Post #5

Правь статус, ####!111
**************
Group: Металариец
Posts: 21,333
Releases: 14587
From: Г.Харьков
On Forums: 7 years 11 months
Thanks: 260896 time(s)
Unknown


Ну лично я выбираю лэйбл-потому как на архивах любой юзер может писать все что ему взбредет в башку
(алкоголь,наркотики,и последующая путаница с датами) и они пишут!Сталкиваюсь почти ежедневно!


Thanks:
(1) krotovich,
Go to the top of the page
  Insert nick Quick quote
+Quote Post
post Sep 23 2019, 20:04:38
Post #6

Все люди - черви.
**********
Group: Металариец
Posts: 1,116
Releases: 133
From: Пхёнъян, Северная Корея
On Forums: 7 years 3 months
Thanks: 4204 time(s)
North Korea


Добротный альбом, на переднем плане модерняцкий дэт-метал, но немного трэшака и атмосферности есть. Растут япошки с каждым альбомом.


Go to the top of the page
  Insert nick Quick quote
+Quote Post
post Sep 24 2019, 21:18:27
Post #7

MDM-Thrash Metal
**************
Group: Металариец
Posts: 9,367
Releases: 792
From: Одесса
On Forums: 12 years 8 months
Thanks: 21361 time(s)
Ukraine


Уж слишком много чистого вокала...
Go to the top of the page
  Insert nick Quick quote
+Quote Post
post Oct 4 2019, 15:23:02
Post #8

Ъ
**************
Group: Металариец
Posts: 10,020
Releases: 9
On Forums: 11 years 3 months
Thanks: 1991 time(s)
Sweden


Хороший альбом для японцев, не типичный, на пару раз послушать норм.
Go to the top of the page
  Insert nick Quick quote
+Quote Post

Reply to this topicStart new topic
1 User(s) are reading this topic (1 Guests and 0 Anonymous Users)
0 Members:

 



- Lo-Fi Version Support form
Copyrights and abuse reports form
Time is now: 10th April 2020 - 10:35:23