Welcome Guest ( Log In | Register )

> И неформату есть предел.

Рэп/хип-хоп/шансон/поп удаляются. Для них есть свои порталы.

 
Reply to this topicStart new topic
> Varous Artists - Heliophagia Netlabel: Isorropia VII (2019), Ambient/Drone/Industrial
post Sep 24 2019, 08:46:53
Post #1

WINTER
*******
Group: Металариец
Posts: 797
Releases: 67
On Forums: 11 years 6 months
Thanks: 1868 time(s)
Russian Federation


(IMG:https://metalarea.org/images/audiocovers/2019_Sep/acov_tid327885_thumb.jpg)

*Artist: Varous Artists
*Album: Heliophagia Netlabel: Isorropia VII
*Year: 2019
*Genre: Ambient/Drone/Industrial
*Country: Russian Federation (IMG:https://metalarea.org/forum/style_images/flags/Russian%20Federation.png)
*Format: mp3@CBR320kbps
*Size: 120MB

Tracklist:
1. Ghost Reflection — Рассыпание Времени 9:09
2. Transplanetary Spaceship — Dark Streams 15:39
3. Accasari — Relays 8:15
4. Oneirine & The Tsalals — Плетора 8:25
5. Ghost Reflections — Трансцендентальная Вертикаль 10:44
******************************
Total playing time: 52:12



Extended info
Компиляция интернет-лейбла Heliophagia, посвящённая осеннему равноденствию.


Technical info
(IMG:https://metalarea.org/images/spectrogram/2019_Sep/9872e50f035678b22a17d20c20c54221.png)
Input File: 01. Рассыпание Времени.mp3
Channels : 2
Sample Rate : 44100
Precision : 16-bit
Duration : 00:09:09.00 = 24210988 samples = 41175.1 CDDA sectors
File Size : 22.2M
Bit Rate : 323k
Sample Encoding: MPEG audio (layer I, II or III)
Comments :
Title=Рассыпание Времени
Artist=Ghost Reflection
Album=Isorropia VII
Tracknumber=1
Year=2019



Register


This post has been edited by Forest Silence: Sep 25 2019, 18:33:14


Go to the top of the page
  Insert nick Quick quote
+Quote Post

Reply to this topicStart new topic
1 User(s) are reading this topic (1 Guests and 0 Anonymous Users)
0 Members:

 



- Lo-Fi Version Support form
Copyrights and abuse reports form
Time is now: 21st October 2019 - 01:52:07