Welcome Guest ( Log In | Register )

> Azels Mountain - Wieczny Sen (2019), Pagan Black Metal
post Sep 25 2019, 00:48:32
Post #1

Правь статус, ####!111
**************
Group: Металариец
Posts: 4,221
Releases: 1143
From: Brazil
On Forums: 8 years 3 weeks
Thanks: 42445 time(s)
Brazil


(IMG:https://metalarea.org/images/audiocovers/2019_Sep/acov_tid327921_thumb.jpg)

*Artist: Azels Mountain
*Album: Wieczny Sen
*Year: 2019
*Genre: Pagan Black Metal
*Country: Poland (IMG:https://metalarea.org/forum/style_images/flags/Poland.png)
*Format: mp3@CBR320kbps
*Size: 101MB

Tracklist:
1. Burza 05:39
2. Zaraza 05:02
3. Szlak 03:55
4. Krwawa zapłata 07:37
5. Wieczny sen 05:48
6. Dusza, czerń popiołu 06:11
7. Kres 01:53
8. Allfadr Odhinn (Enslaved cover) 07:18
******************************
Total playing time: 43:23




Extended info
Werewolf Promotion


Technical info
(IMG:https://metalarea.org/images/spectrogram/2019_Sep/1e21b24309d75addadb27351040643a0.png)
Input File: 03 Szlak.mp3
Channels : 2
Sample Rate : 44100
Precision : 16-bit
Duration : 00:03:56.08 = 10411172 samples = 17706.1 CDDA sectors
File Size : 9.44M
Bit Rate : 320k
Sample Encoding: MPEG audio (layer I, II or III)
Comments :
Title=Szlak
Artist=Azels Mountain
Album=Wieczny Sen
Tracknumber=3
Year=2019



Register


Go to the top of the page
  Insert nick Quick quote
+Quote Post
 
Start new topic
Replies (1 - 3)
post Sep 26 2019, 19:01:09
Post #2

кручу наждак
**************
Group: Металариец
Posts: 4,252
Releases: 102
From: Самара
On Forums: 9 years 9 months
Thanks: 3362 time(s)
Russian Federation


Проходняк.


Thanks:
(1) Krosis,
Go to the top of the page
  Insert nick Quick quote
+Quote Post
post Sep 28 2019, 15:10:14
Post #3

my church is black
*********
Group: Металариец
Posts: 911
Releases: 3
On Forums: 2 years 8 months
Thanks: 582 time(s)
Cape Verde


ЦИТАТА(judaz @ 26th September 2019 - 23:01:09) *
Проходняк.

Угу, сначала вроде показалось норм, но чёто на третьей песне уже захотелось выключить.
Go to the top of the page
  Insert nick Quick quote
+Quote Post
post Jan 18 2020, 16:15:27
Post #4

but I'm white and furry
**********
Group: Металариец
Posts: 1,276
Releases: 450
From: Москва
On Forums: 14 years 2 weeks
Thanks: 5736 time(s)
Russian Federation


ЦИТАТА(lestllk @ Sep 25 2019, 02:48:32) *
3. Szlak 03:55

Подтверждаю
Go to the top of the page
  Insert nick Quick quote
+Quote Post

Reply to this topicStart new topic
1 User(s) are reading this topic (1 Guests and 0 Anonymous Users)
0 Members:

 



- Lo-Fi Version Support form
Copyrights and abuse reports form
Time is now: 22nd February 2020 - 08:05:15