Welcome Guest ( Log In | Register )

> И неформату есть предел.

Рэп/хип-хоп/шансон/поп удаляются. Для них есть свои порталы.

 
Reply to this topicStart new topic
> Various Artists - Old School Electrology Volume One [compilation] (2011), Old School Ebm, Dark Electro (D2146)
post Sep 25 2019, 14:34:26
Post #1

Два Литра
**
Group: Завсегдатай
Posts: 179
Releases: 42
On Forums: 3 years 2 months
Thanks: 944 time(s)
United States


(IMG:https://metalarea.org/images/audiocovers/2019_Sep/acov_tid327951_thumb.jpg)

*Artist: Various Artists
*Album: Old School Electrology Volume One [compilation]
*Year: 2011
*Genre: Old School Ebm, Dark Electro
*Country: Many (IMG:https://metalarea.org/forum/style_images/flags/Many.png)
*Format: mp3@CBR320kbps
*Size: 1200MB

Tracklist:
Old School EBM (CD 1)
01 Agrezzior “Statue of Liberty”
02 Astma “Honor and Glory”
03 Darkmen “Take It Back”
04 DRP “Electro Pussy”
05 EkoBrottsMyndigheten “Get Your Fists Up”
06 Ionic Vision “Hate”
07 K-bereit “Blackened”
08 Lescure 13 “Destruktor” (PouppŽe Fabrikk Cover)**
09 MachineSoldier “Body Anonymous”
10 Old School Union “Perkele”
11 Ondska “Storm”
12 Orange Sector “Noise (Head Mix)”*
13 Pact of Warsaw “Domination”
14 PP? “Repression (Dental Exilanation Remix)”*
15 Presto Fervant “Bullseye”
16 Serpents “Komm Naeher”
17 Spark! “Modern Slaves”
18 Synaptic Defect “Electrofreak”
19 T.A.N.K. “Game of Men”
20 UGH…! “Rage Against Trancewhackedgoregalore”

Authentic Dark Electro (CD 2)
01 Terminal State “Black Salt”
02 IC 434 “Skullwatch (Primal Beats)”
03 Brain Leisure “Self Reality”
04 Amnistia “Pretended”
05 Morgue Mechanism “Simulation”
06 Second Disease “Ecstatic”
07 Necrotek “Revenant”
08 Severe Illusion “My Car Is Burning In Hell”
09 Nordschlacht “The Collective”
10 Pro Patria “H2SO4”
11 Red+Test “Holy War”
12 Object “Humiliating Procedures”
13 tEaR!doWn “Tempting Harlots”
14 Seven Trees “Present Decay”**
15 Putrefy Factor 7 “Confrontation”
16 God Experiment “Shiver”
17 Trial “Brothers in Arms – Old School Mission”*
18 Morticians “Art of Pain”

Assemblage: Authenthic Dark Electro & Oldschool EBM (CD 3)
01 Breathe “Beautiful Lie”
02 Disharmony “Access Points”
03 MC1R “Neuropathy”
04 kAlte fArben “Retrospective”
05 yelworC “Teufels Dreizack Part 1”
06 One Eye Wanders “Misdiagnosis”
07 To Avoid “Payback”
08 Splatter Squall “Summoning”
09 Jihad “Seven Skies”
10 The Holocaust Humanity “Alive”
11 deltaE (Mortal Constraint) “Acceleration”
12 Instans “Robot”
13 Tech Nomader “Nomad”
14 Collapsed System “Stay Tough”
15 A.D.A.C. 8286 “Störtebecker”
16 NTRSN “The Coming Ends”
17 Autodafeh “Dog Tag”
18 Neukampf “Duell Duet”

Amalgamation: Old School EBM & Authenthic Dark Electro (CD 4)
01 Digital Factor “Electric Body”
02 Guerrilla “Walk Away”
03 Kraft “Meine Liebe”
04 BodyFarm “EBM Macht Stark”
05 Armageddon Dildos “Out of Control”
06 Kraftakt “Ich Bin Nicht Da”
07 Stin Scatzor “Noise in My Stomach”
08 Elite! “So Wie Wir”
09 U.M.M. “Cocktail Molotov”
10 Frontal “Zeig Mir”
11 Defecto Nagrobek “Ich War Ein Knabe”
12 The Blister Exists “For The Squad”
13 Injector “Scream”
14 amGod “Deathrider”
15 Haujobb “Letting the Demons Sleep”
16 Total Harmonic Distortion “Reversions/Mutations”
17 tri-state “avataR (kling klang KHAOS)”
18 Sleepwalk “Final Curtain”
19 Venetian Blind “Instead of Tears”
20 Page 12 “Season’s End”
21 Mekanik Disorder “Am I Falling?”
22 Void Kampf “Karmeliet (Uno Mix by Collapsed System)”
******************************
Total playing time: 5:19:19

(IMG:https://metalarea.org/images/youtube.png)
(IMG:https://metalarea.org/images/youtube.png)

Technical info
(IMG:https://metalarea.org/images/spectrogram/2019_Sep/b895d8df95daff9d6ee12a300be9786a.png)
Input File: 01. Terminal State - Black Salt.mp3
Channels : 2
Sample Rate : 44100
Precision : 16-bit
Duration : 00:05:01.55 = 13298399 samples = 22616.3 CDDA sectors
File Size : 12.1M
Bit Rate : 322k
Sample Encoding: MPEG audio (layer I, II or III)
Comments :
Title=Black Salt
Artist=Terminal State
Album=Old School Electrology Volume One
Tracknumber=01/18
Year=2011
Genre=Industrial
Discnumber=2/4



Register


Thanks:
Go to the top of the page
  Insert nick Quick quote
+Quote Post

Reply to this topicStart new topic
1 User(s) are reading this topic (1 Guests and 0 Anonymous Users)
0 Members:

 



- Lo-Fi Version Support form
Copyrights and abuse reports form
Time is now: 21st October 2019 - 01:01:46