Welcome Guest ( Log In | Register )

> И неформату есть предел.

Рэп/хип-хоп/шансон/поп удаляются. Для них есть свои порталы.

 
Reply to this topicStart new topic
> Various Artists - Apocalypse Within: Ebm Independent Compilation Vol. 1 [compilation] (2008), Ebm/Electro/Industrial (D2146)
post Sep 25 2019, 14:54:18
Post #1

Два Литра
**
Group: Завсегдатай
Posts: 179
Releases: 42
On Forums: 3 years 2 months
Thanks: 944 time(s)
United States


(IMG:https://metalarea.org/images/audiocovers/2019_Sep/acov_tid327952_thumb.jpg)

*Artist: Various Artists
*Album: Apocalypse Within: Ebm Independent Compilation Vol. 1 [compilation]
*Year: 2008
*Genre: Ebm/Electro/Industrial
*Country: Many (IMG:https://metalarea.org/forum/style_images/flags/Many.png)
*Format: mp3@VBR213kbps
*Size: 183MB

Tracklist:
1 A7ie - The Cage
2 Acid Trauma - Saltando Hacia El Final (Desconectame Mix)
3 Assurines - First Blood
4 CeDigest - Bound (Coil Of Faith)
5 Datacode Division - Hostage
6 Noctis Null - Torn (Between The Lines)
7 Proyecto Crisis - Proyecto Crisis (Fatal Mix)
8 Vigilante - Hardcore
9 Cold Sequence - Trash Existence
10 Stahlnebel vs Black Selket - Storm (Master Version)
11 Acylum - Ruthless Aggressions (Cold Hands Version)
12 Klaustrophobik - The Target
13 Necrorder - Divine Slave
14 Dexconium - Made In Germany (English Version)
15 Alter Der Ruine - State Of Ruin (Helltrash Remix)
16 969 - Silence Is Gold
17 Alter - Gun 33
18 Reaxxion Guerrilla - Mueranse Todos (Esthierkol Humana)
19 C-Lekktor - Fear Behind Your Mask (live in brazil)
20 Necrotek - Beyond Death
21 Adrenochrome - Praise The Innocent
22 Re-Aktor-T-Tra - Keeping On Shadows
23 Neuromantik - Somos (Insurreción Remix)
24 Bizzarax - Asesino
25 Hexen Prozess - Revenge Of Razbo
26 Noiz+Zilenth - Xentag
27 Cold Drive - Sarcastic (Cyborg Version)
******************************
Total playing time: 2:21:48

(IMG:https://metalarea.org/images/youtube.png)
(IMG:https://metalarea.org/images/youtube.png)

Technical info
(IMG:https://metalarea.org/images/spectrogram/2019_Sep/f8a1ab31d80611388e6e78ed79eba5f6.png)
Input File: Proyecto Crisis - Proyecto Crisis (Fatal Mix).mp3
Channels : 2
Sample Rate : 44100
Precision : 16-bit
Duration : 00:05:35.00 = 14773500 samples = 25125 CDDA sectors
File Size : 9.00M
Bit Rate : 215k
Sample Encoding: MPEG audio (layer I, II or III)
Comments :
Title=Proyecto Crisis (Fatal Mix)
Artist=Proyecto Crisis
Album=Apocalypse Within: EBM Independent Compilation vol. 1
Tracknumber=7
Year=2008
Genre=Various Artists



Register


Thanks:
(1) gwar,
Go to the top of the page
  Insert nick Quick quote
+Quote Post

Reply to this topicStart new topic
1 User(s) are reading this topic (1 Guests and 0 Anonymous Users)
0 Members:

 



- Lo-Fi Version Support form
Copyrights and abuse reports form
Time is now: 22nd October 2019 - 07:57:22