Welcome Guest ( Log In | Register )

> И неформату есть предел.

Рэп/хип-хоп/шансон/поп удаляются. Для них есть свои порталы.

> Various Artists - Dungeon Synth Compilation: Keepers Of The Shadow Realm [compilation] (2017), Dungeon Synth (D2146)
post Sep 25 2019, 15:04:48
Post #1

Два Литра
**
Group: Завсегдатай
Posts: 179
Releases: 42
On Forums: 3 years 2 months
Thanks: 944 time(s)
United States


(IMG:https://metalarea.org/images/audiocovers/2019_Sep/acov_tid327953_thumb.jpg)

*Artist: Various Artists
*Album: Dungeon Synth Compilation: Keepers Of The Shadow Realm [compilation]
*Year: 2017
*Genre: Dungeon Synth
*Country: Many (IMG:https://metalarea.org/forum/style_images/flags/Many.png)
*Format: mp3@CBR320kbps
*Size: 159MB

Tracklist:
1 Fortress Of Ice - A Mystical Place Deep In The Woods
2 Shelter - The Gathering
3 Nebulosa - ...The Solitary Mountain Ascetic
4 Chaucerian Myth - The Ancient Apparition
5 Valscharuhn - Sultan Of Sunken Lichlands
6 Erang - The Ghost From A Long Forgotten Past
7 Einhorn - Dweller Of Murky Crypts / The Dark Herbalist
8 Lusitano - The Ancient Wizard
9 Ossa Coronata - Ghosts Dragging A Corpse
10 Lye The Imprisoned - The Bloodsoaked Seer
11 Tarkin Turfer - Old Finnbar Furrowbrow
12 Nahadoth - Nidahl's Cosmic Views
13 Mitternacht - Wardrums Of The Ultrabishop
14 Anglezarke - Ease
******************************
Total playing time: 1:08:47



Technical info
(IMG:https://metalarea.org/images/spectrogram/2019_Sep/dbd93ae27989aafab580dc9e607eac0c.png)
Input File: 04 - The Ancient Apparition.mp3
Channels : 2
Sample Rate : 44100
Precision : 16-bit
Duration : 00:06:45.68 = 17890532 samples = 30426.1 CDDA sectors
File Size : 16.4M
Bit Rate : 324k
Sample Encoding: MPEG audio (layer I, II or III)
Comments :
Title=The Ancient Apparition
Artist=Chaucerian Myth
Album=KeEPers Of The Shadow Realm
Tracknumber=04
Year=2017
Genre=Dungeon Synth



Register


Go to the top of the page
  Insert nick Quick quote
+Quote Post
 
Start new topic
Replies (1 - 1)
post Oct 2 2019, 09:36:20
Post #2

Правь статус, ####!111
**************
Group: Металариец
Posts: 43,403
Releases: 654
On Forums: 10 years 4 months
Thanks: 34471 time(s)
Russian Federation


Ни одной банды не знаю, но послушать будет интересно, подобные сборки часто содержат очень хорошие группы. (IMG:style_emoticons/default/smile1.gif)
Go to the top of the page
  Insert nick Quick quote
+Quote Post

Reply to this topicStart new topic
1 User(s) are reading this topic (1 Guests and 0 Anonymous Users)
0 Members:

 



- Lo-Fi Version Support form
Copyrights and abuse reports form
Time is now: 21st October 2019 - 01:12:27