Welcome Guest ( Log In | Register )

> Releases Upload / Добавление релизов

Добавить релиз тут / Click here to add release
Рекомендованные обменники / Recommended file shares

 
Reply to this topicStart new topic
> Defecrator - Satanic Martyrdom [ep] (2016), Black/Death Metal
post Sep 25 2019, 18:30:45
Post #1

𝕻𝕬𝕹𝕬𝕮𝕰𝕬
*******
Group: Металариец
Posts: 713
Releases: 403
On Forums: 7 years 5 months
Thanks: 6203 time(s)
Unknown


(IMG:http://metalarea.org/images/audiocovers/2019_Sep/acov_tid327957_thumb.jpg)

*Artist: Defecrator
*Album: Satanic Martyrdom [ep]
*Year: 2016
*Genre: Black/Death Metal
*Country: United States (IMG:http://metalarea.org/forum/style_images/flags/United%20States.png)
*Format: mp3@CBR320kbps
*Size: 18MB

Tracklist:
1. Satanic Martyrdom 04:19
2. Contractionem Diaboli 03:41
******************************
Total playing time: 8:00



Technical info
(IMG:http://metalarea.org/images/spectrogram/2019_Sep/c9fea282c3a921541f5050091b829905.png)
Input File: 02 - Contractionem Diaboli.mp3
Channels : 2
Sample Rate : 44100
Precision : 16-bit
Duration : 00:03:41.64 = 9774236 samples = 16622.9 CDDA sectors
File Size : 8.93M
Bit Rate : 322k
Sample Encoding: MPEG audio (layer I, II or III)
Comments :
Title=Contractionem Diaboli
Artist=Defecrator
Album=Satanic Martyrdom
Tracknumber=2
Year=2016
Genre=Death/Black Metal



Register


Go to the top of the page
  Insert nick Quick quote
+Quote Post

Reply to this topicStart new topic
2 User(s) are reading this topic (2 Guests and 0 Anonymous Users)
0 Members:

 



- Lo-Fi Version Support form
Copyrights and abuse reports form
Time is now: 22nd November 2019 - 04:06:51