Welcome Guest ( Log In | Register )

> Releases Upload / Добавление релизов

Добавить релиз тут / Click here to add release
Рекомендованные обменники / Recommended file shares

> Goatpenis & Kurgaall - Satanic Terror Weapons [split] (2016), Black/Death Metal | Black Metal (D)
post Sep 25 2019, 18:37:27
Post #1

𝕻𝕬𝕹𝕬𝕮𝕰𝕬
*******
Group: Металариец
Posts: 709
Releases: 401
On Forums: 7 years 5 months
Thanks: 6105 time(s)
Unknown


(IMG:http://metalarea.org/images/audiocovers/2019_Sep/acov_tid327958_thumb.jpg)

*Artist: Goatpenis & Kurgaall
*Album: Satanic Terror Weapons [split]
*Year: 2016
*Genre: Black/Death Metal | Black Metal
*Country: Brazil (IMG:http://metalarea.org/forum/style_images/flags/Brazil.png) | Italy (IMG:http://metalarea.org/forum/style_images/flags/Italy.png)
*Format: mp3@CBR320kbps
*Size: 36MB

Tracklist:
Goatpenis:
1. Carnivorous Ability 04:32
2. Allucinatory Sirens 04:03
Kurgaall:
3. Terror 04:55
4. Heretic Weapons 04:36
******************************
Total playing time: 18:06

Technical info
(IMG:http://metalarea.org/images/spectrogram/2019_Sep/073d6a442809b4ed10affcce3ab91be1.png)
Input File: 02 - Goatpenis-Allucinatory Sirens.mp3
Channels : 2
Sample Rate : 44100
Precision : 16-bit
Duration : 00:04:02.79 = 10706819 samples = 18208.9 CDDA sectors
File Size : 9.70M
Bit Rate : 320k
Sample Encoding: MPEG audio (layer I, II or III)
Comments :
Title=Allucinatory Sirens
Artist=Goatpenis
Album=Satanic Terror Weapons
Tracknumber=2
Year=2016
Genre=Black/Death Metal



Register


Go to the top of the page
  Insert nick Quick quote
+Quote Post
 
Start new topic
Replies (1 - 5)
post Sep 26 2019, 08:07:56
Post #2

De Mysteriis Dom Sathanas
**************
Group: Металариец
Posts: 3,712
Releases: 63
From: Doom
On Forums: 11 years 3 months
Thanks: 3125 time(s)
Russian Federation


Goatpenis - обе песни есть на полноформатнике 2017, вторая группа ничего примечательного


Thanks:
(1) AHBAnep,
Go to the top of the page
  Insert nick Quick quote
+Quote Post
post Sep 26 2019, 14:26:02
Post #3

𝕻𝕬𝕹𝕬𝕮𝕰𝕬
*******
Group: Металариец
Posts: 709
Releases: 401
On Forums: 7 years 5 months
Thanks: 6105 time(s)
Unknown




Thanks:
Go to the top of the page
  Insert nick Quick quote
+Quote Post
post Sep 26 2019, 20:03:57
Post #4

Два Литра
**
Group: Завсегдатай
Posts: 123
Releases: 0
On Forums: 10 years 10 months
Thanks: 5 time(s)
Germany


reup pls
Go to the top of the page
  Insert nick Quick quote
+Quote Post
post Sep 28 2019, 07:46:05
Post #5


Group Icon
Group: S-moderation team
Posts: 12,577
Releases: 1439
From: Zagreb
On Forums: 8 years 8 months
Thanks: 54425 time(s)
Croatia


Register


Go to the top of the page
  Insert nick Quick quote
+Quote Post
post Nov 9 2019, 16:21:30    Сейчас играет: Flail - Silent Depths
Post #6

antithesis
**************
Group: Металариец
Posts: 2,863
Releases: 32
From: VRN
On Forums: 9 years 5 months
Thanks: 1707 time(s)
Russian Federation


бразильцы не покатили, а Kurgaall я бы послушал, жаль, что кроме Satanization нет их релизов на металарейке.
Go to the top of the page
  Insert nick Quick quote
+Quote Post

Reply to this topicStart new topic
2 User(s) are reading this topic (2 Guests and 0 Anonymous Users)
0 Members:

 



- Lo-Fi Version Support form
Copyrights and abuse reports form
Time is now: 12th November 2019 - 13:49:09