Welcome Guest ( Log In | Register )

> Releases Upload / Добавление релизов

Добавить релиз тут / Click here to add release
Рекомендованные обменники / Recommended file shares

 
Reply to this topicStart new topic
> Serpent Rider - Pour Forth Surquidous [demo] (2019), Epic Heavy/Doom Metal
post Sep 25 2019, 18:56:56
Post #1

𝕻𝕬𝕹𝕬𝕮𝕰𝕬
*******
Group: Металариец
Posts: 712
Releases: 403
On Forums: 7 years 5 months
Thanks: 6188 time(s)
Unknown


(IMG:http://metalarea.org/images/audiocovers/2019_Sep/acov_tid327959_thumb.jpg)

*Artist: Serpent Rider
*Album: Pour Forth Surquidous [demo]
*Year: 2019
*Genre: Epic Heavy/Doom Metal
*Country: International (IMG:http://metalarea.org/forum/style_images/flags/International.png)
*Format: mp3@CBR320kbps
*Size: 21MB

Tracklist:
1. Portent Of Doom 04:57
2. Pour Forth Surquidous 04:17
******************************
Total playing time: 9:14



Technical info
(IMG:http://metalarea.org/images/spectrogram/2019_Sep/8ef22c186e5de1169b2d5bad39727f97.png)
Input File: 02 - Pour Forth Surquidous.mp3
Channels : 2
Sample Rate : 44100
Precision : 16-bit
Duration : 00:04:17.92 = 11374448 samples = 19344.3 CDDA sectors
File Size : 10.4M
Bit Rate : 322k
Sample Encoding: MPEG audio (layer I, II or III)
Comments :
Title=Pour Forth Surquidous
Artist=Serpent Rider
Album=Pour Forth Surquidous
Tracknumber=2
Year=2019
Genre=Epic Heavy/Doom Metal



Register


Go to the top of the page
  Insert nick Quick quote
+Quote Post

Reply to this topicStart new topic
2 User(s) are reading this topic (2 Guests and 0 Anonymous Users)
0 Members:

 



- Lo-Fi Version Support form
Copyrights and abuse reports form
Time is now: 20th November 2019 - 02:38:07