Welcome Guest ( Log In | Register )

> 

Здесь релизы с живыми прямыми ссылками на lossless

> Hyperdontia - A Vessel Forlorn [compilation] (2019), Old School Death Metal
post Sep 26 2019, 00:11:57
Post #1

Правь статус, ####!111
**************
Group: Металариец
Posts: 19,079
Releases: 12876
From: Г.Харьков
On Forums: 7 years 5 months
Thanks: 221014 time(s)
Unknown


(IMG:http://metalarea.org/images/audiocovers/2019_Sep/acov_tid327967_thumb.jpg)

*Artist: Hyperdontia
*Album: A Vessel Forlorn [compilation]
*Year: 2019
*Genre: Old School Death Metal
*Country: International (IMG:http://metalarea.org/forum/style_images/flags/International.png)
*Format: mp3@CBR320kbps
*Size: 64MB

Tracklist:
1. A Vessel Forlorn 05:33
2. Internal Incineration (Live) 04:34
3. Majesty (Live) 04:20
4. Stapled Down 03:45
5. Internal Incineration 04:17
6. Malicious Concept 03:57
******************************
Total playing time: 26:26




Extended info
Denmark / Turkey
Malik Çamlıca Bass
Tuna Drums
Mustafa Gürcalioğlu Guitars
David Mikkelsen Vocals
Mathias Friborg Guitars


Technical info
(IMG:http://metalarea.org/images/spectrogram/2019_Sep/d1200f0fcae76ab123e6bebee3204ff1.png)
Input File: 04. Stapled Down.mp3
Channels : 2
Sample Rate : 44100
Precision : 16-bit
Duration : 00:03:45.58 = 9948210 samples = 16918.7 CDDA sectors
File Size : 9.37M
Bit Rate : 332k
Sample Encoding: MPEG audio (layer I, II or III)
Comments :
Title=Stapled Down
Artist=Hyperdontia
Album=A Vessel Forlorn
Tracknumber=04
Year=2019
Genre=Metal



Register


Go to the top of the page
  Insert nick Quick quote
+Quote Post
 
Start new topic
Replies (1 - 1)
post Sep 26 2019, 01:16:38
Post #2

Литр
*
Group: Подсевший
Posts: 73
Releases: 0
From: Austin Texas
On Forums: 1 year 1 month
Thanks: 51 time(s)
United States


Register


Thanks:
Go to the top of the page
  Insert nick Quick quote
+Quote Post

Reply to this topicStart new topic
1 User(s) are reading this topic (1 Guests and 0 Anonymous Users)
0 Members:

 



- Lo-Fi Version Support form
Copyrights and abuse reports form
Time is now: 21st October 2019 - 01:53:06