Welcome Guest ( Log In | Register )

> Starborn - Savage Peace (2019), Power Metal
post Sep 26 2019, 14:32:28
Post #1

Serial Uploader
Group Icon
Group: V.I.P
Posts: 36,613
Releases: 34801
From: Lithuania
On Forums: 11 years 6 months
Thanks: 407663 time(s)
Lithuania


(IMG:http://metalarea.org/images/audiocovers/2019_Sep/acov_tid328006_thumb.jpg)

*Artist: Starborn
*Album: Savage Peace
*Year: 2019
*Genre: Power Metal
*Country: United Kingdom (IMG:http://metalarea.org/forum/style_images/flags/United%20Kingdom.png)
*Format: mp3@CBR320kbps
*Size: 121MB

Tracklist:
01. Existence Under Oath 07:26
02. Unwelcome 05:28
03. Beneath an Iron Sky 05:38
04. I Am the Clay 08:07
05. Lunar Labyrinth 04:56
06. Darkness Divine 05:09
07. Inked in Blood 06:41
08. Savage Peace 09:35
******************************
Total playing time: 53:00



(IMG:http://metalarea.org/images/youtube.png)

Technical info
(IMG:http://metalarea.org/images/spectrogram/2019_Sep/a2d8223f46718ca3ef75e8de6eeb33d8.png)
Input File: 2 - Unwelcome.mp3
Channels : 2
Sample Rate : 44100
Precision : 16-bit
Duration : 00:05:27.67 = 14450335 samples = 24575.4 CDDA sectors
File Size : 13.2M
Bit Rate : 321k
Sample Encoding: MPEG audio (layer I, II or III)
Comments :
Title=Unwelcome
Artist=Starborn
Album=Savage Peace
Tracknumber=2
Year=2019
Genre=Alternative/Indie Rock/Metal
Discnumber=1



Register


Go to the top of the page
  Insert nick Quick quote
+Quote Post
 
Start new topic
Replies (1 - 7)
post Sep 27 2019, 15:57:47
Post #2

Маньяк
**********
Group: Металариец
Posts: 1,214
Releases: 0
From: Moscow
On Forums: 12 years 1 month
Thanks: 705 time(s)
Russian Federation


Совершенно прекрасный альбом в стилистике US-павер из конца 80-х, со всевозможными заходами на территорию ранних Fates Warning, Crimson Glory и прочих американских металоваров старой школы.


Thanks:
(2) AHBAnep, Olrak,
Go to the top of the page
  Insert nick Quick quote
+Quote Post
post Sep 27 2019, 17:03:47
Post #3

Правь статус, ####!111
**************
Group: Металариец
Posts: 2,759
Releases: 8
From: Dnipro
On Forums: 11 years 5 months
Thanks: 863 time(s)
Ukraine


No input file specified.
Go to the top of the page
  Insert nick Quick quote
+Quote Post
post Sep 27 2019, 18:51:27
Post #4

Шесть Литров
******
Group: Металариец
Posts: 680
Releases: 0
From: Одесса-мама
On Forums: 10 years 10 months
Thanks: 218 time(s)
Ukraine


Та же лажа - No input file specified.
(IMG:style_emoticons/default/21.gif)
(IMG:style_emoticons/default/22.gif)
(IMG:style_emoticons/default/6.gif)
Go to the top of the page
  Insert nick Quick quote
+Quote Post
post Sep 27 2019, 23:26:28
Post #5

Group: Дух
Posts: 8
Releases: 0
On Forums: 7 years 3 weeks
Thanks: 0 time(s)
Czech Republic


mirror please?
Go to the top of the page
  Insert nick Quick quote
+Quote Post
post Sep 28 2019, 10:19:42
Post #6

hearer & reader
**************
Group: Металариец
Posts: 8,242
Releases: 111
From: Moscow
On Forums: 12 years 3 months
Thanks: 7775 time(s)
Russian Federation


Register


Thanks:
(1) DTGB,
Go to the top of the page
  Insert nick Quick quote
+Quote Post
post Sep 28 2019, 16:30:50
Post #7

MDM-Thrash Metal
**************
Group: Металариец
Posts: 9,127
Releases: 755
From: Одесса
On Forums: 12 years 4 months
Thanks: 20114 time(s)
Ukraine


Cloud Mail 320:
Register


Go to the top of the page
  Insert nick Quick quote
+Quote Post
post Sep 28 2019, 18:40:23
Post #8

Group: Дух
Posts: 8
Releases: 0
On Forums: 7 years 3 weeks
Thanks: 0 time(s)
Czech Republic


thanks \m/
Go to the top of the page
  Insert nick Quick quote
+Quote Post

Reply to this topicStart new topic
2 User(s) are reading this topic (2 Guests and 0 Anonymous Users)
0 Members:

 



- Lo-Fi Version Support form
Copyrights and abuse reports form
Time is now: 14th December 2019 - 04:21:49