Welcome Guest ( Log In | Register )

> Heretics - Via Appia (2019), Melodic Death/Thrash Metal
post Sep 26 2019, 15:14:32
Post #1

Правь статус, ####!111
**************
Group: Металариец
Posts: 20,649
Releases: 14097
From: Г.Харьков
On Forums: 7 years 9 months
Thanks: 248840 time(s)
Unknown


(IMG:http://metalarea.org/images/audiocovers/2019_Sep/acov_tid328008_thumb.jpg)

*Artist: Heretics
*Album: Via Appia
*Year: 2019
*Genre: Melodic Death/Thrash Metal
*Country: Germany (IMG:http://metalarea.org/forum/style_images/flags/Germany.png)
*Format: mp3@CBR320kbps
*Size: 100MB

Tracklist:
01. Anything and Everything
02. Self-Preservation
03. In the Name of Stupidity
04. Via Appia
05. The Scourge
06. Talent for Violence
07. With Thoughts as Weapons
08. From Grief to Hatred
09. From Hatred to Death
******************************
Total playing time: 43:58




Extended info
Santiago Vadillo Sánchez Bass
See also: Awaiting Downfall
Thomas 'Tony' Langehenke Drums (2009-present)
Dennis Schnitzmeier Guitars (2009-present)
Tim Lobner Guitars (2009-present)
See also: In Sanity
Fabian Marx Vocals (2014-present)


Technical info
(IMG:http://metalarea.org/images/spectrogram/2019_Sep/a374e766c4e4abed258c0780a85ad70b.png)
Input File: 4 - Via Appia (feat. Wayward Dawn & Heretic Legion).mp3
Channels : 2
Sample Rate : 44100
Precision : 16-bit
Duration : 00:05:16.65 = 13964133 samples = 23748.5 CDDA sectors
File Size : 12.7M
Bit Rate : 321k
Sample Encoding: MPEG audio (layer I, II or III)
Comments :
Title=Via Appia (Feat. Wayward Dawn & Heretic Legion)
Artist=Heretics/Heretic Legion
Album=Via Appia
Tracknumber=4
Year=2019
Genre=Metal
Discnumber=1



Register


Go to the top of the page
  Insert nick Quick quote
+Quote Post
 
Start new topic
Replies (1 - 3)
post Sep 27 2019, 15:22:55
Post #2

Правь статус, ####!111
**************
Group: Металариец
Posts: 20,649
Releases: 14097
From: Г.Харьков
On Forums: 7 years 9 months
Thanks: 248840 time(s)
Unknown


Cloud Mail 320
Register


Thanks:
Go to the top of the page
  Insert nick Quick quote
+Quote Post
post Sep 28 2019, 06:54:13
Post #3

Ъ
**************
Group: Металариец
Posts: 9,921
Releases: 9
On Forums: 11 years 1 month
Thanks: 1967 time(s)
Sweden


Третьесорт.


Thanks:
Go to the top of the page
  Insert nick Quick quote
+Quote Post
post Sep 28 2019, 16:32:37
Post #4

MDM-Thrash Metal
**************
Group: Металариец
Posts: 9,266
Releases: 780
From: Одесса
On Forums: 12 years 6 months
Thanks: 20972 time(s)
Ukraine


Тоже не зашло - какая то невнятица! (IMG:style_emoticons/default/6.gif)


Thanks:
Go to the top of the page
  Insert nick Quick quote
+Quote Post

Reply to this topicStart new topic
2 User(s) are reading this topic (2 Guests and 0 Anonymous Users)
0 Members:

 



- Lo-Fi Version Support form
Copyrights and abuse reports form
Time is now: 22nd February 2020 - 08:43:52