Welcome Guest ( Log In | Register )

> ShadowThrone - Elements' Blackest Legacy (2019), Symphonic Black/Thrash Metal (D)
post Sep 26 2019, 15:48:17
Post #1

Serial Uploader
Group Icon
Group: V.I.P
Posts: 36,616
Releases: 34804
From: Lithuania
On Forums: 11 years 6 months
Thanks: 407737 time(s)
Lithuania


(IMG:http://metalarea.org/images/audiocovers/2019_Sep/acov_tid328011_thumb.jpg)

*Artist: ShadowThrone
*Album: Elements' Blackest Legacy
*Year: 2019
*Genre: Symphonic Black/Thrash Metal
*Country: Italy (IMG:http://metalarea.org/forum/style_images/flags/Italy.png)
*Format: mp3@CBR320kbps
*Size: 141MB

Tracklist:
01. Endless Dance of the Universe 06:15
02. Black Dove upon My Shoulder 05:56
03. All Is One 05:45
04. Saturn of Newborn Era 06:39
05. Curse of the Royal Blood 04:52
06. Descent 04:21
07. Every Moment Burns in My Chest 06:11
08. Path of Decay 05:10
09. ShadowThrone 06:39
10. L'autunno di bacco 05:29
11. Faded and Cold Humanity 04:22
******************************
Total playing time: 1:01:39




(IMG:http://metalarea.org/images/youtube.png)

Technical info
(IMG:http://metalarea.org/images/spectrogram/2019_Sep/76bdd06f16e05835b0907e0fba882caa.png)
Input File: 02 - Black Dove Upon My Shoulder.mp3
Channels : 2
Sample Rate : 44100
Precision : 16-bit
Duration : 00:05:55.57 = 15680725 samples = 26667.9 CDDA sectors
File Size : 14.3M
Bit Rate : 321k
Sample Encoding: MPEG audio (layer I, II or III)
Comments :
Title=Black Dove Upon My Shoulder
Artist=Shadowthrone
Album=Elements' Blackest Legacy
Tracknumber=2
Year=2019
Genre=Rock
Discnumber=1



Register

Register


Go to the top of the page
  Insert nick Quick quote
+Quote Post
 
Start new topic
Replies (1 - 6)
post Sep 27 2019, 15:53:47
Post #2

Group: Подсевший
Posts: 13
Releases: 0
On Forums: 1 year 8 months
Thanks: 12 time(s)
Unknown


Mirror please, karelia.ru uploads doesn't work. Thank you.
Go to the top of the page
  Insert nick Quick quote
+Quote Post
post Sep 27 2019, 15:57:26
Post #3

Правь статус, ####!111
**************
Group: Металариец
Posts: 19,872
Releases: 13490
From: Г.Харьков
On Forums: 7 years 7 months
Thanks: 233382 time(s)
Unknown


Cloud Mail 320
Register

Register


Go to the top of the page
  Insert nick Quick quote
+Quote Post
post Sep 27 2019, 15:59:30
Post #4

Group: Подсевший
Posts: 13
Releases: 0
On Forums: 1 year 8 months
Thanks: 12 time(s)
Unknown


Thanks a lot (IMG:style_emoticons/default/smile1.gif)


Go to the top of the page
  Insert nick Quick quote
+Quote Post
post Sep 28 2019, 21:48:59
Post #5

Два Литра
**
Group: Завсегдатай
Posts: 189
Releases: 0
From: Лыткарино
On Forums: 7 months 4 days
Thanks: 45 time(s)
Russian Federation


Как по методичке диммуборгировской всё писано, а в результате, кроме техники, пустота какая-то.
Go to the top of the page
  Insert nick Quick quote
+Quote Post
post Sep 30 2019, 21:55:38
Post #6

Правь статус, ####!111
**************
Group: Металариец
Posts: 2,759
Releases: 8
From: Dnipro
On Forums: 11 years 5 months
Thanks: 863 time(s)
Ukraine


ЦИТАТА(Aectan @ Sep 28 2019, 23:48:59) *
Как по методичке диммуборгировской всё писано, а в результате, кроме техники, пустота какая-то.
Пожалуй не соглашусь, ни чего нового, но сыграно отлично.
В таком духе давно уже не было интересных альбомов, этот интересный.


Thanks:
(1) Andrew,
Go to the top of the page
  Insert nick Quick quote
+Quote Post
post Nov 14 2019, 21:00:25
Post #7

MDM-Thrash Metal
**************
Group: Металариец
Posts: 9,129
Releases: 755
From: Одесса
On Forums: 12 years 4 months
Thanks: 20128 time(s)
Ukraine


ЦИТАТА(isvili @ Oct 1 2019, 00:55:38) *
Пожалуй не соглашусь, ни чего нового, но сыграно отлично.

Также пришелся по душе материал. Вроде бы и ничего нового, но слушается очень и очень приятно! (IMG:style_emoticons/default/20.gif)


Thanks:
(1) Hunter08,
Go to the top of the page
  Insert nick Quick quote
+Quote Post

Reply to this topicStart new topic
1 User(s) are reading this topic (1 Guests and 0 Anonymous Users)
0 Members:

 



- Lo-Fi Version Support form
Copyrights and abuse reports form
Time is now: 14th December 2019 - 19:47:26