Welcome Guest ( Log In | Register )

> И неформату есть предел.

Рэп/хип-хоп/шансон/поп удаляются. Для них есть свои порталы.

> Trust - Fils De Lutte (2019), Rock
post Sep 27 2019, 17:13:51
Post #1

Каждое ваше "Спасибо" помогает мне понять, что я делаю новости не напрасно.
**************
Group: Металариец
Posts: 2,003
Releases: 1758
From: Одесса
On Forums: 11 years 4 months
Thanks: 15233 time(s)
Ukraine


(IMG:http://metalarea.org/images/audiocovers/2019_Sep/acov_tid328070_thumb.jpg)

*Artist: Trust
*Album: Fils De Lutte
*Year: 2019
*Genre: Rock
*Country: France (IMG:http://metalarea.org/forum/style_images/flags/France.png)
*Format: mp3@CBR320kbps
*Size: 118MB

Tracklist:
1.Portez vos croix
2.Les murs finiront par tomber
3.Amer Saheb (Massoud l'Afghan)
4.J'ai cessé de compter
5.Miss univers
6.Tendances
7.Les soleil brille pour tous
8.Y'a pas le feu mais faut brûler
9.On va prendre cher
10.C'n'est pas d'ma faute
11.Ce n'est pas la Corée du Nord
12.Delenda
******************************
Total playing time: 53:22

(IMG:http://metalarea.org/images/youtube.png)
(IMG:http://metalarea.org/images/youtube.png)
(IMG:http://metalarea.org/images/youtube.png)
(IMG:http://metalarea.org/images/youtube.png)

Extended info
Line - up:

Norbert "Nono" Krief - Guitars (Norbert Krief, ex-Johnny Hallyday)
Bernard "Bernie" Bonvoisin - Vocals (Bernie Bonvoisin, Kollektif AK-47)
David Jacob - Bass
Ismaila "Iso" Diop - Guitars (Handful of Dust, Kollektif AK-47)
Christian Dupuy - Drums

(IMG:https://www.metal-archives.com/images/1/6/5/9/1659_photo.jpg)


Technical info
(IMG:http://metalarea.org/images/spectrogram/2019_Sep/5439a8c2efccf97a027585069e6c310d.png)
Input File: 03. Amer Saheb (Massoud l\'Afghan).mp3
Channels : 2
Sample Rate : 44100
Precision : 16-bit
Duration : 00:04:56.35 = 13069123 samples = 22226.4 CDDA sectors
File Size : 11.9M
Bit Rate : 322k
Sample Encoding: MPEG audio (layer I, II or III)
Comments :
Title=Amer Saheb (Massoud l'Afghan)
Artist=Trust
Album=Fils de lutte
Tracknumber=3
Year=2019
Genre=17



Register


Go to the top of the page
  Insert nick Quick quote
+Quote Post
 
Start new topic
Replies (1 - 1)
post Sep 28 2019, 13:50:35
Post #2

Три Литра
***
Group: Завсегдатай
Posts: 254
Releases: 12
From: Москва
On Forums: 11 years 6 months
Thanks: 199 time(s)
Russian Federation


Благодарю.Неплохой такой альбом.В старых традициях хард-рока.
Go to the top of the page
  Insert nick Quick quote
+Quote Post

Reply to this topicStart new topic
1 User(s) are reading this topic (1 Guests and 0 Anonymous Users)
0 Members:

 



- Lo-Fi Version Support form
Copyrights and abuse reports form
Time is now: 21st October 2019 - 01:41:21