Welcome Guest ( Log In | Register )

> Cynic - Traced In Air - Remixed (2019), Progressive Death Metal/Fusion (D)
post Sep 27 2019, 18:06:45
Post #1

Каждое ваше "Спасибо" помогает мне понять, что я делаю новости не напрасно.
**************
Group: Металариец
Posts: 2,483
Releases: 2198
From: Одесса
On Forums: 11 years 10 months
Thanks: 20420 time(s)
Ukraine


(IMG:http://metalarea.org/images/audiocovers/2019_Sep/acov_tid328075_thumb.jpg)

*Artist: Cynic
*Album: Traced In Air - Remixed
*Year: 2019
*Genre: Progressive Death Metal/Fusion
*Country: United States (IMG:http://metalarea.org/forum/style_images/flags/United%20States.png)
*Format: mp3@CBR320kbps
*Size: 80MB

Tracklist:
1.Nunc Fluens 02:57
2.The Space for This 05:47
3.Evolutionary Sleeper 03:36
4.Integral Birth 03:45
5.The Unknown Guest 04:09
6.Adam's Murmur 03:29
7.King of Those Who Know 06:08
8.Nunc Stans 04:14
******************************
Total playing time: 34:05



Extended info
Line - up:

Paul Masvidal - Vocals, Guitars, Vocoder vocals, Guitar synth (ex-Portal, Onward with Love, Æon Spoke, ex-Master, ex-Death, ex-Seaweed, ex-Death DTA (live))
Sean Malone - Bass, Chapman stick (ex-Anomaly, John Wesley (live), ex-OSI, ex-Aghora, ex-Gordian Knot, ex-Sean Malone)
Matt Lynch - Drums (Nova Collective, Trioscapes)

(IMG:https://www.metal-archives.com/images/9/1/91_photo.jpg?0448)


Technical info
(IMG:http://metalarea.org/images/spectrogram/2019_Sep/71c9f20d9f82cb7dc987801d6655ffa0.png)
Input File: 03. Evolutionary Sleeper.mp3
Channels : 2
Sample Rate : 44100
Precision : 16-bit
Duration : 00:03:35.89 = 9520793 samples = 16191.8 CDDA sectors
File Size : 8.64M
Bit Rate : 320k
Sample Encoding: MPEG audio (layer I, II or III)
Comments :
Title=Evolutionary Sleeper
Artist=Cynic
Album=Traced in Air Remixed
Tracknumber=3
Year=2019
Genre=Progressive Death Metal/Fusion



Register


Go to the top of the page
  Insert nick Quick quote
+Quote Post
 
Start new topic
Replies (1 - 7)
post Sep 28 2019, 14:04:00
Post #2

Dark Ambient Shoujo
**********
Group: Металариец
Posts: 1,246
Releases: 2
On Forums: 11 years 3 months
Thanks: 684 time(s)
Russian Federation


Я уж подумал, новый...
Go to the top of the page
  Insert nick Quick quote
+Quote Post
post Oct 15 2019, 23:57:14
Post #3

Шесть Литров
******
Group: Металариец
Posts: 672
Releases: 1
From: Россия, Санкт-Петербург
On Forums: 11 years 10 months
Thanks: 84 time(s)
Russian Federation


Кто-нибудь различия услышал?)
Go to the top of the page
  Insert nick Quick quote
+Quote Post
post Oct 18 2019, 15:22:56
Post #4

Schuldinerist
**************
Group: Металариец
Posts: 10,527
Releases: 33
From:
On Forums: 12 years 11 months
Thanks: 6726 time(s)
Russian Federation


ЦИТАТА(J0k3r @ Oct 16 2019, 01:57:14) *
Кто-нибудь различия услышал?)

мне показалось вступление чуть длиннее, и звук выровняли (в оригинале провалы слышатся, как на качелях)
но это не точно
Go to the top of the page
  Insert nick Quick quote
+Quote Post
post Oct 18 2019, 15:24:31
Post #5

И Ван Дамм По Делам Вашим!
**************
Group: Металариец
Posts: 18,790
Releases: 26
On Forums: 11 years 9 months
Thanks: 10427 time(s)
Honduras


ЦИТАТА(Dreamtale @ Sep 28 2019, 16:04:00) *
Я уж подумал, новый...

То что они сейчас ваяют я и не жду от них ничего примечательного.
Go to the top of the page
  Insert nick Quick quote
+Quote Post
post Oct 18 2019, 16:05:20
Post #6

Трезвый мастер
Group Icon
Group: Moderation team
Posts: 3,987
Releases: 0
On Forums: 9 years 8 months
Thanks: 1660 time(s)
Russian Federation


ЦИТАТА
*Стиль: Progressive Death Metal

what?!


Thanks:
(1) Deze,
Go to the top of the page
  Insert nick Quick quote
+Quote Post
post Oct 18 2019, 16:10:17
Post #7

Герберт Уэст
**************
Group: Металариец
Posts: 2,312
Releases: 72
From: Поморье
On Forums: 10 years 9 months
Thanks: 4896 time(s)
Russian Federation


ЦИТАТА(J0k3r @ Oct 16 2019, 01:57:14) *
Кто-нибудь различия услышал?)

Убрали харш - вокал.))) Это лишило альбом изначального очарования, к сожалению. Оригинал 2008го года - рулит и педалит. Выпуск ремастера оказался бессмыслен, как по мне, абсолютно. (IMG:style_emoticons/default/bye.gif)


Thanks:
(1) Deze,
Go to the top of the page
  Insert nick Quick quote
+Quote Post
post Oct 18 2019, 16:58:50
Post #8

Правь статус (ну неее... лень-матушка)
**************
Group: Металариец
Posts: 12,481
Releases: 0
From: Киев
On Forums: 12 years 2 months
Thanks: 7403 time(s)
Unknown


Да, различие в том, что убрали брутальный вокал и я согласен с paganheartом, что это ОЧЕНЬ ПЛОХО. Тот же Integral Birth (основной вин этого альбома) теперь на порядок хуже звучит.


Thanks:
Go to the top of the page
  Insert nick Quick quote
+Quote Post

Reply to this topicStart new topic
2 User(s) are reading this topic (2 Guests and 0 Anonymous Users)
0 Members:

 



- Lo-Fi Version Support form
Copyrights and abuse reports form
Time is now: 4th April 2020 - 23:19:41