Welcome Guest ( Log In | Register )

> 

Здесь релизы с живыми прямыми ссылками на lossless

> Ragehammer - War Hawks [demo] (2012), Black/Thrash Metal
post Sep 27 2019, 19:01:14
Post #1

...
**************
Group: Металариец
Posts: 3,353
Releases: 1425
From: МЕЩЁРА
On Forums: 11 years 6 months
Thanks: 40635 time(s)
Russian Federation


(IMG:http://metalarea.org/images/audiocovers/2019_Sep/acov_tid328077_thumb.jpg)

*Artist: Ragehammer
*Album: War Hawks [demo]
*Year: 2012
*Genre: Black/Thrash Metal
*Country: Poland (IMG:http://metalarea.org/forum/style_images/flags/Poland.png)
*Format: mp3@CBR320kbps
*Size: 62MB

Tracklist:
1. Ragehammer Rising 02:46
2. Prophet Of Genocide 05:16
3. Hate Command 02:41
4. The Wolfpack 05:00
5. Gospel Of The Scum 03:09
******************************
Total playing time: 18:52



Extended info
+ Scans.



Technical info
(IMG:http://metalarea.org/images/spectrogram/2019_Sep/814921ea27780860c3e91800ebae72e0.png)
Input File: 1. Ragehammer Rising.mp3
Channels : 2
Sample Rate : 44100
Precision : 16-bit
Duration : 00:02:46.54 = 7344546 samples = 12490.7 CDDA sectors
File Size : 6.66M
Bit Rate : 320k
Sample Encoding: MPEG audio (layer I, II or III)
Comments :
Title=Ragehammer Rising
Artist=Ragehammer
Album=War Hawks
Tracknumber=1
Year=2012
Genre=Black/Thrash Metal



Register


Go to the top of the page
  Insert nick Quick quote
+Quote Post
 
Start new topic
Replies (1 - 1)
post Oct 10 2019, 17:02:50
Post #2


Group Icon
Group: S-moderation team
Posts: 12,082
Releases: 1439
From: Zagreb
On Forums: 8 years 7 months
Thanks: 52756 time(s)
Croatia


Register
Go to the top of the page
  Insert nick Quick quote
+Quote Post

Reply to this topicStart new topic
1 User(s) are reading this topic (1 Guests and 0 Anonymous Users)
0 Members:

 



- Lo-Fi Version Support form
Copyrights and abuse reports form
Time is now: 21st October 2019 - 01:26:52