Welcome Guest ( Log In | Register )

> Cult Of Luna - Eternal Music [compilation] (2014), Post-Metal
post Sep 29 2019, 07:03:56
Post #1

Маньяк
**********
Group: Металариец
Posts: 1,234
Releases: 93
On Forums: 6 years 5 months
Thanks: 2694 time(s)
Unknown


(IMG:http://metalarea.org/images/audiocovers/2019_Sep/acov_tid328140_thumb.jpg)

*Artist: Cult Of Luna
*Album: Eternal Music [compilation]
*Year: 2014
*Genre: Post-Metal
*Country: Sweden (IMG:http://metalarea.org/forum/style_images/flags/Sweden.png)
*Format: mp3@CBR320kbps
*Size: 91MB

Tracklist:
01. Gingin 02:54
02. Jämmerdalen 02:33
03. Varken Dur Eller Moll 02:14
04. Valsen 01:47
05. Mors Tema 02:20
06. Elddansen 04:46
07. Maran 02:11
08. Harlägen 02:31
09. Skogens Häst 03:15
10. Petterssons Ackord 01:11
11. Om Igen 02:39
12. Gitarrarpeggio 02:26
13. Ekokammarn / Nord 08:39
******************************
Total playing time: 39:26



Technical info
(IMG:http://metalarea.org/images/spectrogram/2019_Sep/53cebfa660c6f3a76cb4bea9a63a96d9.png)
Input File: 13 Ekokammarn & Nord.mp3
Channels : 2
Sample Rate : 48000
Precision : 16-bit
Duration : 00:08:39.50 = 24936192 samples ~ 38962.8 CDDA sectors
File Size : 20.8M
Bit Rate : 320k
Sample Encoding: MPEG audio (layer I, II or III)
Comments :
Title=Ekokammarn / Nord
Artist=Cult of Luna
Album=Eternal Music
Tracknumber=B5
Year=2010
Genre=Post Metal



Register


Go to the top of the page
  Insert nick Quick quote
+Quote Post
 
Start new topic
Replies (1 - 1)
post Sep 29 2019, 10:45:11
Post #2

hearer & reader
**************
Group: Металариец
Posts: 8,511
Releases: 130
From: Moscow
On Forums: 12 years 6 months
Thanks: 8369 time(s)
Russian Federation


Soundtrack of the 2010 audiobook "Eviga riket" (A dramatized tale based on the fictional notes of the late mental patient Holger Nilsson).
Музыка психушки)


Thanks:
Go to the top of the page
  Insert nick Quick quote
+Quote Post

Reply to this topicStart new topic
2 User(s) are reading this topic (2 Guests and 0 Anonymous Users)
0 Members:

 



- Lo-Fi Version Support form
Copyrights and abuse reports form
Time is now: 6th April 2020 - 17:07:04