Welcome Guest ( Log In | Register )

> Cult Of Luna - Demo [demo] (1999), Post-Metal
post Sep 29 2019, 07:06:59
Post #1

Маньяк
**********
Group: Металариец
Posts: 1,217
Releases: 91
On Forums: 6 years 4 weeks
Thanks: 2495 time(s)
Unknown


(IMG:http://metalarea.org/images/audiocovers/2019_Sep/acov_tid328141_thumb.jpg)

*Artist: Cult Of Luna
*Album: Demo [demo]
*Year: 1999
*Genre: Post-Metal
*Country: Sweden (IMG:http://metalarea.org/forum/style_images/flags/Sweden.png)
*Format: mp3@CBR192kbps
*Size: 24MB

Tracklist:
01. Descended from Light 07:26
02. Serpent Caress 10:06
******************************
Total playing time: 17:32



Technical info
(IMG:http://metalarea.org/images/spectrogram/2019_Sep/065ea5af205f3d571420f04b587be42c.png)
Input File: 01 - Descended from light.mp3
Channels : 2
Sample Rate : 44100
Precision : 16-bit
Duration : 00:07:26.42 = 19687210 samples = 33481.6 CDDA sectors
File Size : 10.7M
Bit Rate : 192k
Sample Encoding: MPEG audio (layer I, II or III)



Register


Go to the top of the page
  Insert nick Quick quote
+Quote Post
 
Start new topic
Replies (1 - 2)
post Sep 29 2019, 09:02:03
Post #2

Литр
*
Group: Подсевший
Posts: 95
Releases: 0
From: Харбин
On Forums: 1 year 2 months
Thanks: 117 time(s)
Unknown


incorrect link!!!!!!!!!!


Thanks:
(1) DarkHorde,
Go to the top of the page
  Insert nick Quick quote
+Quote Post
post Sep 29 2019, 10:52:52
Post #3

Маньяк
**********
Group: Металариец
Posts: 1,217
Releases: 91
On Forums: 6 years 4 weeks
Thanks: 2495 time(s)
Unknown


QUOTE(unit731 @ Sep 29 2019, 10:02:03) *
incorrect link!!!!!!!!!!

Fixed.


Go to the top of the page
  Insert nick Quick quote
+Quote Post

Reply to this topicStart new topic
2 User(s) are reading this topic (2 Guests and 0 Anonymous Users)
0 Members:

 



- Lo-Fi Version Support form
Copyrights and abuse reports form
Time is now: 16th November 2019 - 00:56:33