Welcome Guest ( Log In | Register )

> Releases Upload / Добавление релизов

Добавить релиз тут / Click here to add release
Рекомендованные обменники / Recommended file shares

 
Reply to this topicStart new topic
> Cult Of Luna - Bbc Session Maida Vale Studios, London 08.12.2013 [bootleg] (2013), Post-Metal (D)
post Sep 29 2019, 07:11:13
Post #1

Маньяк
**********
Group: Металариец
Posts: 1,217
Releases: 91
On Forums: 6 years 1 month
Thanks: 2497 time(s)
Unknown


(IMG:http://metalarea.org/images/audiocovers/2019_Sep/acov_tid328142_thumb.jpg)

*Artist: Cult Of Luna
*Album: Bbc Session Maida Vale Studios, London 08.12.2013 [bootleg]
*Year: 2013
*Genre: Post-Metal
*Country: Sweden (IMG:http://metalarea.org/forum/style_images/flags/Sweden.png)
*Format: mp3@CBR320kbps
*Size: 73MB

Tracklist:
01. I, The Weapon 09:03
02. In Awe Of 09:42
03. Ghost Trail 13:02
******************************
Total playing time: 31:47



Technical info
(IMG:http://metalarea.org/images/spectrogram/2019_Sep/b473c3a294aee2f5c58b5a0ce346736b.png)
Input File: 01 - Cult Of Luna - I, The Weapon.mp3
Channels : 2
Sample Rate : 44100
Precision : 16-bit
Duration : 00:09:03.74 = 23979022 samples = 40780.6 CDDA sectors
File Size : 21.7M
Bit Rate : 320k
Sample Encoding: MPEG audio (layer I, II or III)
Comments :
Title=I, The Weapon
Artist=Cult Of Luna
Album=BBC Session 08.12.2013
Tracknumber=1
Year=2013
Genre=Sludge / Post-Metal



Register


Go to the top of the page
  Insert nick Quick quote
+Quote Post

Reply to this topicStart new topic
2 User(s) are reading this topic (2 Guests and 0 Anonymous Users)
0 Members:

 



- Lo-Fi Version Support form
Copyrights and abuse reports form
Time is now: 17th November 2019 - 21:35:35