Welcome Guest ( Log In | Register )

> Releases Upload / Добавление релизов

Добавить релиз тут / Click here to add release
Рекомендованные обменники / Recommended file shares

 
Reply to this topicStart new topic
> Riwen - Riwen [ep] (2014), Black Metal/Crust
post Sep 29 2019, 12:40:48
Post #1

Маньяк
**********
Group: Металариец
Posts: 1,217
Releases: 91
On Forums: 6 years 3 weeks
Thanks: 2487 time(s)
Unknown


(IMG:http://metalarea.org/images/audiocovers/2019_Sep/acov_tid328154_thumb.jpg)

*Artist: Riwen
*Album: Riwen [ep]
*Year: 2014
*Genre: Black Metal/Crust
*Country: Sweden (IMG:http://metalarea.org/forum/style_images/flags/Sweden.png)
*Format: mp3@CBR320kbps
*Size: 27MB

Tracklist:
01. Nature Calls Us Back 03:31
02. Values 02:28
03. Karlsgrundet 05:58
******************************
Total playing time: 11:57



Technical info
(IMG:http://metalarea.org/images/spectrogram/2019_Sep/7799918414e791bb6ac3bc1f8a854d6b.png)
Input File: 02 - Values.mp3
Channels : 2
Sample Rate : 44100
Precision : 16-bit
Duration : 00:02:28.23 = 6536767 samples = 11117 CDDA sectors
File Size : 6.07M
Bit Rate : 328k
Sample Encoding: MPEG audio (layer I, II or III)
Comments :
Title=Values
Artist=Riwen
Album=Riwen
Tracknumber=2
Year=2016-03-10
Genre=Rock; Hard Rock; Metal
Discnumber=1



Register


Go to the top of the page
  Insert nick Quick quote
+Quote Post

Reply to this topicStart new topic
2 User(s) are reading this topic (2 Guests and 0 Anonymous Users)
0 Members:

 



- Lo-Fi Version Support form
Copyrights and abuse reports form
Time is now: 12th November 2019 - 15:02:04