Welcome Guest ( Log In | Register )

> Releases Upload / Добавление релизов

Добавить релиз тут / Click here to add release
Рекомендованные обменники / Recommended file shares

 
Reply to this topicStart new topic
> Cult Of Luna - Live At La Gaîté Lyrique, Paris [live] (2017), Post-Metal (D)
post Sep 29 2019, 12:48:41
Post #1

Маньяк
**********
Group: Металариец
Posts: 1,217
Releases: 91
On Forums: 6 years 1 month
Thanks: 2503 time(s)
Unknown


(IMG:http://metalarea.org/images/audiocovers/2019_Sep/acov_tid328156_thumb.jpg)

*Artist: Cult Of Luna
*Album: Live At La Gaîté Lyrique, Paris [live]
*Year: 2017
*Genre: Post-Metal
*Country: Sweden (IMG:http://metalarea.org/forum/style_images/flags/Sweden.png)
*Format: mp3@CBR320kbps
*Size: 253MB

Tracklist:
CD1
01. The Sweep 2:17
02. Light Chaser 6:49
03. Owlwood 6:41
04. Echoes 11:56
05. I: The Weapon 9:14
06. Waiting For You 10:54

CD2
01. Marching To The Heartbeats 3:14
02. Finland 11:14
03. Back To Chapel Town 7:05
04. And With Her Came The Birds 6:04
05. Thirtyfour 9:19
06. Dim 10:50
07. Dark City, Dead Man 15:09
******************************
Total playing time: 1:50:46



Technical info
(IMG:http://metalarea.org/images/spectrogram/2019_Sep/ca61b8f6112bd10a76589a2b01a0f93b.png)
Input File: 05 - I_The Weapon.mp3
Channels : 2
Sample Rate : 44100
Precision : 16-bit
Duration : 00:09:14.09 = 24435237 samples = 41556.5 CDDA sectors
File Size : 22.3M
Bit Rate : 321k
Sample Encoding: MPEG audio (layer I, II or III)
Comments :
Title=I:The Weapon (Live)
Artist=Cult of Luna
Album=Live at La Gaîté Lyrique: Paris
Tracknumber=5
Year=2017-04-21
Genre=Rock; Hard Rock; Metal
Discnumber=1



Register


Go to the top of the page
  Insert nick Quick quote
+Quote Post

Reply to this topicStart new topic
2 User(s) are reading this topic (2 Guests and 0 Anonymous Users)
0 Members:

 



- Lo-Fi Version Support form
Copyrights and abuse reports form
Time is now: 21st November 2019 - 12:02:20