Welcome Guest ( Log In | Register )

> Inoculation - Anatomize [ep] (2019), Technical Death Metal
post Sep 29 2019, 21:09:49
Post #1

Семь Литров
*******
Group: Металариец
Posts: 793
Releases: 28
From: Saint-Petersburg
On Forums: 11 years 3 weeks
Thanks: 1887 time(s)
Russian Federation


(IMG:http://metalarea.org/images/audiocovers/2019_Sep/acov_tid328167_thumb.jpg)

*Artist: Inoculation
*Album: Anatomize [ep]
*Year: 2019
*Genre: Technical Death Metal
*Country: United States (IMG:http://metalarea.org/forum/style_images/flags/United%20States.png)
*Format: mp3@CBR320kbps
*Size: 20MB

Tracklist:
1. Nocturnal Levitation 04:30
2. Anatomize 03:52
******************************
Total playing time: 8:22

Extended info


Technical info
(IMG:http://metalarea.org/images/spectrogram/2019_Sep/8de0a0570932ce2aec1bf3dafbceaecb.png)
Input File: Inoculation - Anatomize.mp3
Channels : 2
Sample Rate : 44100
Precision : 16-bit
Duration : 00:03:52.08 = 10234904 samples = 17406.3 CDDA sectors
File Size : 9.29M
Bit Rate : 320k
Sample Encoding: MPEG audio (layer I, II or III)
Comments :
Title=Anatomize
Artist=Inoculation
Album=Anatomize
Tracknumber=2
Year=2019
Genre=(22)



Register


Go to the top of the page
  Insert nick Quick quote
+Quote Post
 
Start new topic
Replies (1 - 2)
post Sep 30 2019, 17:42:42
Post #2

Литр
*
Group: Подсевший
Posts: 67
Releases: 4
On Forums: 6 years 7 months
Thanks: 78 time(s)
Russian Federation


Permission Denied по ссылке вместо файла


Go to the top of the page
  Insert nick Quick quote
+Quote Post
post Jan 7 2020, 02:59:10
Post #3

Правь статус, ####!111
**************
Group: Металариец
Posts: 2,286
Releases: 0
On Forums: 5 years 4 months
Thanks: 2850 time(s)
Russian Federation


Из ВК, 320
Register


Thanks:
(1) boby9052,
Go to the top of the page
  Insert nick Quick quote
+Quote Post

Reply to this topicStart new topic
2 User(s) are reading this topic (2 Guests and 0 Anonymous Users)
0 Members:

 



- Lo-Fi Version Support form
Copyrights and abuse reports form
Time is now: 25th September 2020 - 11:23:55