Welcome Guest ( Log In | Register )

> Odd Logic - Last Watch Of The Nightingale (2019), Progressive Metal
post Sep 30 2019, 15:26:39
Post #1

на аватаре не я
**************
Group: Металариец
Posts: 4,963
Releases: 7
From: "Самопровозглашенная ДНР" (с)
On Forums: 10 years 11 months
Thanks: 2501 time(s)
Russian Federation


(IMG:http://metalarea.org/images/audiocovers/2019_Sep/acov_tid328186_thumb.jpg)

*Artist: Odd Logic
*Album: Last Watch Of The Nightingale
*Year: 2019
*Genre: Progressive Metal
*Country: United States (IMG:http://metalarea.org/forum/style_images/flags/United%20States.png)
*Format: mp3@CBR320kbps
*Size: 155MB

Tracklist:
1. Last Watch 06:17
2. Garden of Thorns 06:17
3. Absence 05:30
4. Chance of Gods 06:26
5. Dreaming in Color 08:02
6. ...of the Nightingale 08:15
7. Sorrow 04:09
8. Boundary Division 23:00
******************************
Total playing time: 1:07:56



Technical info
(IMG:http://metalarea.org/images/spectrogram/2019_Sep/e7c58f42c23e94bcb0a774d7e1e4172f.png)
Input File: 06. Of The Nightingale.mp3
Channels : 2
Sample Rate : 44100
Precision : 16-bit
Duration : 00:08:15.97 = 21872057 samples = 37197.4 CDDA sectors
File Size : 19.9M
Bit Rate : 321k
Sample Encoding: MPEG audio (layer I, II or III)
Comments :
Title=Of The Nightingale
Artist=Odd Logic
Album=Last Watch Of The Nightingale
Tracknumber=6
Year=2019
Genre=Progressive Rock/Metal



Register


This post has been edited by Persian Gorgrinder: Oct 11 2019, 05:11:40


Go to the top of the page
  Insert nick Quick quote
+Quote Post
 
Start new topic
Replies (1 - 1)
post Oct 3 2019, 10:43:45
Post #2

на аватаре не я
**************
Group: Металариец
Posts: 4,963
Releases: 7
From: "Самопровозглашенная ДНР" (с)
On Forums: 10 years 11 months
Thanks: 2501 time(s)
Russian Federation


Переслушал несколько раз. Впечатления такие - лучше предыдущих двух, но слабее, чем 2009 и 2011.
Go to the top of the page
  Insert nick Quick quote
+Quote Post

Reply to this topicStart new topic
2 User(s) are reading this topic (2 Guests and 0 Anonymous Users)
0 Members:

 



- Lo-Fi Version Support form
Copyrights and abuse reports form
Time is now: 6th June 2020 - 09:09:26