Welcome Guest ( Log In | Register )

> Releases Upload / Добавление релизов

Добавить релиз тут / Click here to add release
Рекомендованные обменники / Recommended file shares

 
Reply to this topicStart new topic
> Throneum - Organic Death Temple (Mmxvi) (2016), Black/Death Metal (D)
post Sep 30 2019, 22:41:07
Post #1

𝕻𝕬𝕹𝕬𝕮𝕰𝕬
*******
Group: Металариец
Posts: 709
Releases: 401
On Forums: 7 years 5 months
Thanks: 6106 time(s)
Unknown


(IMG:http://metalarea.org/images/audiocovers/2019_Sep/acov_tid328196_thumb.jpg)

*Artist: Throneum
*Album: Organic Death Temple (Mmxvi)
*Year: 2016
*Genre: Black/Death Metal
*Country: Poland (IMG:http://metalarea.org/forum/style_images/flags/Poland.png)
*Format: mp3@CBR320kbps
*Size: 81MB

Tracklist:
1. I 06:52
2. II 04:08
3. III 04:03
4. IV 06:00
5. V 04:50
6. VI 07:40
7. VII 08:33
******************************
Total playing time: 42:06



Technical info
(IMG:http://metalarea.org/images/spectrogram/2019_Sep/15518b3ba50bce5d4451efee5f6a537d.png)
Input File: 03 - III.mp3
Channels : 2
Sample Rate : 44100
Precision : 16-bit
Duration : 00:04:03.00 = 10716300 samples = 18225 CDDA sectors
File Size : 9.72M
Bit Rate : 320k
Sample Encoding: MPEG audio (layer I, II or III)
Comments :
Title=III
Artist=Throneum
Album=Organic Death Temple (MMXVI)
Tracknumber=3
Year=2016
Genre=Black/Death Metal



Register


Go to the top of the page
  Insert nick Quick quote
+Quote Post

Reply to this topicStart new topic
2 User(s) are reading this topic (2 Guests and 0 Anonymous Users)
0 Members:

 



- Lo-Fi Version Support form
Copyrights and abuse reports form
Time is now: 13th November 2019 - 05:27:44