Welcome Guest ( Log In | Register )

> Releases Upload / Добавление релизов

Добавить релиз тут / Click here to add release
Рекомендованные обменники / Recommended file shares

 
Reply to this topicStart new topic
> Throneum & Stormvold - Fifth Column Of Sheol [split] (2018), Black/Death Metal | Black/Death Metal (D)
post Sep 30 2019, 22:45:33
Post #1

𝕻𝕬𝕹𝕬𝕮𝕰𝕬
*******
Group: Металариец
Posts: 712
Releases: 403
On Forums: 7 years 5 months
Thanks: 6168 time(s)
Unknown


(IMG:http://metalarea.org/images/audiocovers/2019_Sep/acov_tid328197_thumb.jpg)

*Artist: Throneum & Stormvold
*Album: Fifth Column Of Sheol [split]
*Year: 2018
*Genre: Black/Death Metal | Black/Death Metal
*Country: Poland (IMG:http://metalarea.org/forum/style_images/flags/Poland.png) | Spain (IMG:http://metalarea.org/forum/style_images/flags/Spain.png)
*Format: mp3@CBR320kbps
*Size: 81MB

Tracklist:
Throneum:
1. Above 04:37
2. To The Great Matter 03:47
3. The Immutable Illusion 03:59
4. And Blood I Bleed 03:59
5. Awakening 02:56
Stormvold:
6. Heil Destrukcion 04:36
7. Extermania 04:09
8. Nekro-Actitud 04:40
9. Bestribucio 04:02
******************************
Total playing time: 36:45



Technical info
(IMG:http://metalarea.org/images/spectrogram/2019_Sep/8572f43829d8e5913c1410cdc74f4769.png)
Input File: 06 - Stormvold-Heil Destrukcion.mp3
Channels : 2
Sample Rate : 44100
Precision : 16-bit
Duration : 00:04:37.07 = 12218919 samples = 20780.5 CDDA sectors
File Size : 11.1M
Bit Rate : 320k
Sample Encoding: MPEG audio (layer I, II or III)
Comments :
Title=Heil Destrukcion
Artist=Stormvold
Album=Fifth Column Of Sheol
Tracknumber=6
Year=2018
Genre=Black/Death Metal



Register


Go to the top of the page
  Insert nick Quick quote
+Quote Post

Reply to this topicStart new topic
2 User(s) are reading this topic (2 Guests and 0 Anonymous Users)
0 Members:

 



- Lo-Fi Version Support form
Copyrights and abuse reports form
Time is now: 19th November 2019 - 00:28:09