Welcome Guest ( Log In | Register )

> И неформату есть предел.

Рэп/хип-хоп/шансон/поп удаляются. Для них есть свои порталы.

> Shirley Bassey - Never Never Never (1973), Jazz
post Oct 1 2019, 21:29:04
Post #1

Правь статус, ####!111
**************
Group: Металариец
Posts: 43,403
Releases: 654
On Forums: 10 years 4 months
Thanks: 34471 time(s)
Russian Federation


(IMG:http://metalarea.org/images/audiocovers/2019_Oct/acov_tid328230_thumb.jpg)

*Artist: Shirley Bassey
*Album: Never Never Never
*Year: 1973
*Genre: Jazz
*Country: United Kingdom (IMG:http://metalarea.org/forum/style_images/flags/United%20Kingdom.png)
*Format: mp3@CBR320kbps
*Size: 77MB

Tracklist:
1. Never, Never, Never 03:13
2. Baby I'm-a Want You 02:44
3. Someone Who Cares 02:53
4. The Old Fashioned Way 03:06
5. I Won't Last a Day Without You 03:31
6. Somehow 02:24
7. There's No Such Thing as Love 03:00
8. Killing Me Softly with His Song 04:40
9. Going, Going, Gone 02:13
10. No Regrets 04:29
11. Together 03:16
12. Make The World a Little Younger 03:34
******************************
Total playing time: 39:03

(IMG:http://metalarea.org/images/youtube.png)

Technical info
(IMG:http://metalarea.org/images/spectrogram/2019_Oct/a01f2ba6612cbf8e6071cfb5ee1aea98.png)
Input File: 01. Never, Never, Never (Grande, Grande, Grande).mp3
Channels : 2
Sample Rate : 44100
Precision : 16-bit
Duration : 00:03:13.13 = 8517165 samples = 14485 CDDA sectors
File Size : 7.81M
Bit Rate : 323k
Sample Encoding: MPEG audio (layer I, II or III)
Comments :
Title=Never, Never, Never (Grande, Grande, Grande)
Artist=Shirley Bassey
Album=Never, Never, Never
Tracknumber=01/12
Year=1973
Genre=28



Register


Thanks:
Go to the top of the page
  Insert nick Quick quote
+Quote Post
 
Start new topic
Replies (1 - 3)
post Oct 2 2019, 08:05:00
Post #2

Правь статус, ####!111
**************
Group: Металариец
Posts: 43,403
Releases: 654
On Forums: 10 years 4 months
Thanks: 34471 time(s)
Russian Federation


Волшебный голос, удивительной харизмы и экспрессии исполнительница.

Одна из лучших песен 20 столетия (IMG:style_emoticons/default/pray.gif)



Go to the top of the page
  Insert nick Quick quote
+Quote Post
post Oct 4 2019, 08:12:40
Post #3

Правь статус, ####!111
**************
Group: Металариец
Posts: 43,403
Releases: 654
On Forums: 10 years 4 months
Thanks: 34471 time(s)
Russian Federation


Музыка с большой буквы (IMG:style_emoticons/default/20.gif)

Go to the top of the page
  Insert nick Quick quote
+Quote Post
post Yesterday, 19:36:45
Post #4

Правь статус, ####!111
**************
Group: Металариец
Posts: 4,129
Releases: 0
From: Одесса
On Forums: 11 years 7 months
Thanks: 2357 time(s)
Unknown


Thanks for this interesting upload.


Thanks:
Go to the top of the page
  Insert nick Quick quote
+Quote Post

Reply to this topicStart new topic
1 User(s) are reading this topic (1 Guests and 0 Anonymous Users)
0 Members:

 



- Lo-Fi Version Support form
Copyrights and abuse reports form
Time is now: 21st October 2019 - 01:21:21