Welcome Guest ( Log In | Register )

> И неформату есть предел.

Рэп/хип-хоп/шансон/поп удаляются. Для них есть свои порталы.

> Lightning Bolt - Sonic Citadel (2019), Experimental/Noise Rock (D5)
post Oct 1 2019, 22:29:58
Post #1

Правь статус, ####!111
**************
Group: Металариец
Posts: 43,403
Releases: 654
On Forums: 10 years 4 months
Thanks: 34471 time(s)
Russian Federation


(IMG:http://metalarea.org/images/audiocovers/2019_Oct/acov_tid328232_thumb.jpg)

*Artist: Lightning Bolt
*Album: Sonic Citadel
*Year: 2019
*Genre: Experimental/Noise Rock
*Country: United States (IMG:http://metalarea.org/forum/style_images/flags/United%20States.png)
*Format: mp3@CBR320kbps
*Size: 112MB

Tracklist:
1. Blow To the Head 03:08
2. USA Is a Psycho 03:07
3. Air Conditioning 04:13
4. Hüsker Dön't 06:03
5. Big Banger 05:04
6. Halloween 3 05:48
7. Don Henley In the Park 03:49
8. Tom Thump 02:41
9. Bouncy House 04:38
10. All Insane 04:56
11. Van Halen 2049 09:10
******************************
Total playing time: 52:37



Technical info
(IMG:http://metalarea.org/images/spectrogram/2019_Oct/a309b38b5e859c8b9495238a07e68922.png)
Input File: 01 - Blow to the Head.mp3
Channels : 2
Sample Rate : 44100
Precision : 16-bit
Duration : 00:03:08.64 = 8319156 samples = 14148.2 CDDA sectors
File Size : 7.55M
Bit Rate : 320k
Sample Encoding: MPEG audio (layer I, II or III)
Comments :
Title=Blow to the Head
Artist=Lightning Bolt
Album=Sonic Citadel
Tracknumber=1/11
Year=2019



Register


Go to the top of the page
  Insert nick Quick quote
+Quote Post
 
Start new topic
Replies (1 - 2)
post Oct 2 2019, 08:01:56
Post #2

Правь статус, ####!111
**************
Group: Металариец
Posts: 43,403
Releases: 654
On Forums: 10 years 4 months
Thanks: 34471 time(s)
Russian Federation


Культовая группа для понимающих.
Go to the top of the page
  Insert nick Quick quote
+Quote Post
post Oct 18 2019, 17:01:04
Post #3

Литр
*
Group: Подсевший
Posts: 55
Releases: 2
From: Phoenix
On Forums: 12 years 6 months
Thanks: 33 time(s)
Russian Federation


в USA is a Psycho так отчетливо в одном месте слышится Rundagor (IMG:style_emoticons/default/1488.gif)
лучший альбом коллектива.
Go to the top of the page
  Insert nick Quick quote
+Quote Post

Reply to this topicStart new topic
1 User(s) are reading this topic (1 Guests and 0 Anonymous Users)
0 Members:

 



- Lo-Fi Version Support form
Copyrights and abuse reports form
Time is now: 21st October 2019 - 01:32:23