Welcome Guest ( Log In | Register )

> Berzek - The Hollow World -العالم الاجوف- (2019), Black Metal
post Oct 3 2019, 01:16:29
Post #1

Правь статус, ####!111
**************
Group: Металариец
Posts: 20,635
Releases: 14084
From: Г.Харьков
On Forums: 7 years 9 months
Thanks: 248511 time(s)
Unknown


(IMG:http://metalarea.org/images/audiocovers/2019_Oct/acov_tid328277_thumb.jpg)

*Artist: Berzek
*Album: The Hollow World -العالم الاجوف-
*Year: 2019
*Genre: Black Metal
*Country: Algeria (IMG:http://metalarea.org/forum/style_images/flags/Algeria.png)
*Format: mp3@CBR320kbps
*Size: 88MB

Tracklist:
1. The Hollow World 08:35
2. Call of the Damned 05:09
3. Points of Intersections 04:30 instrumental
4. Mourning in Oblivion 10:27
5. My Endless War 05:31
6. The Void's Hymn 03:43 instrumental
******************************
Total playing time: 37:55




Extended info
Havoc Everything


Technical info
(IMG:http://metalarea.org/images/spectrogram/2019_Oct/ff03e430a269275b96f8b4f98f728659.png)
Input File: 02 Call of the damned.mp3
Channels : 2
Sample Rate : 44100
Precision : 16-bit
Duration : 00:05:09.93 = 13668045 samples = 23245 CDDA sectors
File Size : 12.7M
Bit Rate : 327k
Sample Encoding: MPEG audio (layer I, II or III)
Comments :
Title=Call Of The Damned
Artist=Berzek
Album=The Hollow World -العالم الاجوف-
Tracknumber=02
Year=2019



Register


Go to the top of the page
  Insert nick Quick quote
+Quote Post
 
Start new topic
Replies (1 - 1)
post Jan 9 2020, 22:17:26
Post #2

ретроград
**************
Group: Металариец
Posts: 5,027
Releases: 182
On Forums: 12 years 8 months
Thanks: 7494 time(s)
Vatican City


Очень крепкий и разнообразный альбом, не дающий заскучать от начала до конца. Тут тебе и бласт-биты с жужжащими гитарами, и красивые акустические проигрыши и интересные соляки, клавиши, женский вокал в одном месте... короче всего много, в меру и со вкусом и сыграно всё легко и непринужденно. Могут в Алжире! 8/10
P.S. Альбом явно заслуживает больше чем 0 комментариев)


Thanks:
Go to the top of the page
  Insert nick Quick quote
+Quote Post

Reply to this topicStart new topic
1 User(s) are reading this topic (1 Guests and 0 Anonymous Users)
0 Members:

 



- Lo-Fi Version Support form
Copyrights and abuse reports form
Time is now: 20th February 2020 - 18:36:38