Welcome Guest ( Log In | Register )

> И неформату есть предел.

Рэп/хип-хоп/шансон/поп удаляются. Для них есть свои порталы.

> Flying Colors - Third Degree (2019), Progressive Rock
post Oct 3 2019, 08:13:12
Post #1

Cultist
**************
Group: Металариец
Posts: 3,982
Releases: 1251
From: Koenigsberg
On Forums: 12 years 9 months
Thanks: 7737 time(s)
Russian Federation


(IMG:http://metalarea.org/images/audiocovers/2019_Oct/acov_tid328280_thumb.jpg)

*Artist: Flying Colors
*Album: Third Degree
*Year: 2019
*Genre: Progressive Rock
*Country: United States (IMG:http://metalarea.org/forum/style_images/flags/United%20States.png)
*Format: mp3@CBR320kbps
*Size: 152MB

Tracklist:
1.The Loss Inside 5:50
2.More 7:09
3.Cadence 7:40
4.Guardian 7:11
5.Last Train Home 10:32
6.Geronimo 5:20
7.You Are Not Alone 6:21
8.Love Letter 5:10
9.Crawl 11:14
******************************
Total playing time: 1:06:27



Technical info
(IMG:http://metalarea.org/images/spectrogram/2019_Oct/9aae34e727edea010e087120d1dbffab.png)
Input File: 04 - Guardian.mp3
Channels : 2
Sample Rate : 44100
Precision : 16-bit
Duration : 00:07:10.73 = 18995325 samples = 32305 CDDA sectors
File Size : 17.3M
Bit Rate : 321k
Sample Encoding: MPEG audio (layer I, II or III)
Comments :
Title=Guardian
Artist=Flying Colors
Album=Third Degree
Tracknumber=04
Year=2019
Genre=Progressive Rock



Register


Go to the top of the page
  Insert nick Quick quote
+Quote Post
 
Start new topic
Replies (1 - 3)
post Oct 4 2019, 11:33:56
Post #2

Мегаманьяк
***********
Group: Металариец
Posts: 1,607
Releases: 0
From: Харьков
On Forums: 10 years 3 weeks
Thanks: 639 time(s)
Ukraine


Так себе звездный проект, ничего выдающегося. По традиции послушаю разок.
Go to the top of the page
  Insert nick Quick quote
+Quote Post
post Oct 10 2019, 17:18:16
Post #3

Ритуальные услуги
***********
Group: Металариец
Posts: 1,869
Releases: 33
From: Ставрополь
On Forums: 1 year 8 months
Thanks: 1226 time(s)
Russian Federation


По сравнению с предыдущими двуми заметнее крен в хард-рок, а первый мне даже нравился.


Thanks:
(1) Ghostb,
Go to the top of the page
  Insert nick Quick quote
+Quote Post
post Oct 10 2019, 21:34:53
Post #4

Мегаманьяк
***********
Group: Металариец
Posts: 1,607
Releases: 0
From: Харьков
On Forums: 10 years 3 weeks
Thanks: 639 time(s)
Ukraine


ЦИТАТА(mirotvorets @ Oct 10 2019, 19:18:16) *
По сравнению с предыдущими двумя заметнее крен в хард-рок

А где-то даже в поп-рок. Треки типа Geronimo или Love Letter совсем мимо меня.
Go to the top of the page
  Insert nick Quick quote
+Quote Post

Reply to this topicStart new topic
2 User(s) are reading this topic (2 Guests and 0 Anonymous Users)
0 Members:

 



- Lo-Fi Version Support form
Copyrights and abuse reports form
Time is now: 21st October 2019 - 01:10:13