Welcome Guest ( Log In | Register )

> Haunted By Silhouettes - The Last Day On Earth (2019), Melodic Death Metal
post Oct 3 2019, 13:03:06
Post #1

Serial Uploader
Group Icon
Group: V.I.P
Posts: 37,016
Releases: 35198
From: Lithuania
On Forums: 11 years 8 months
Thanks: 414738 time(s)
Lithuania


(IMG:http://metalarea.org/images/audiocovers/2019_Oct/acov_tid328305_thumb.jpg)

*Artist: Haunted By Silhouettes
*Album: The Last Day On Earth
*Year: 2019
*Genre: Melodic Death Metal
*Country: Norway (IMG:http://metalarea.org/forum/style_images/flags/Norway.png)
*Format: mp3@CBR320kbps
*Size: 99MB

Tracklist:
01. The Last Day on Earth
02. Pyroclast
03. Deadlock
04. Death of Janus
05. Mountain of Skulls
06. Stitches
07. Jakta
08. Post-Mortem Portraits
09. Undertow
10. The Well
11. Horns
12. Ghost Heart
13. Before the Last Pyre Ends
******************************
Total playing time: 43:05



(IMG:http://metalarea.org/images/youtube.png)

Technical info
(IMG:http://metalarea.org/images/spectrogram/2019_Oct/384fb05e138084b89ea9388665119f0f.png)
Input File: 2 - Pyroclast.mp3
Channels : 2
Sample Rate : 44100
Precision : 16-bit
Duration : 00:03:38.47 = 9634703 samples = 16385.5 CDDA sectors
File Size : 8.79M
Bit Rate : 322k
Sample Encoding: MPEG audio (layer I, II or III)
Comments :
Title=Pyroclast
Artist=Haunted By Silhouettes
Album=The Last Day on Earth
Tracknumber=2
Year=2019



Register


Go to the top of the page
  Insert nick Quick quote
+Quote Post
 
Start new topic
Replies (1 - 1)
post Oct 6 2019, 05:33:21
Post #2

Ъ
**************
Group: Металариец
Posts: 9,921
Releases: 9
On Forums: 11 years 1 month
Thanks: 1967 time(s)
Sweden



Третьесорт.


Thanks:
Go to the top of the page
  Insert nick Quick quote
+Quote Post

Reply to this topicStart new topic
2 User(s) are reading this topic (2 Guests and 0 Anonymous Users)
0 Members:

 



- Lo-Fi Version Support form
Copyrights and abuse reports form
Time is now: 22nd February 2020 - 08:53:21